Documentary

Legacy of Torture The War Against the Black Liberation Movement (2006) [h33t][snach]

  • Download 5x Faster
  • Download torrent
  • Direct Download
  • Rate this torrent +  |  -

Torrent info

Name:Legacy of Torture The War Against the Black Liberation Movement (2006) [h33t][snach]

Total Size: 367.92 MB

Magnet: Magnet Link

Seeds: 3

Leechers: 2

Stream: Watch Online @ Movie4u

Last Updated: 2011-01-08 19:14:08 (Update Now)

Torrent added: 2009-09-01 16:21:48





Torrent Files List


INFO.txt (Size: 367.92 MB) (Files: 4)

 INFO.txt

4.71 KB

 Legacy.of.Torture.2006.DVDrip.xvid.mp3-snach.avi

367.92 MB

 Torrent downloaded from Demonoid.com.txt

0.05 KB

 tracked_by_h33t_com.txt

0.02 KB
 

Announce URL: http://www.h33t.com:3310/announce

Torrent description

--this is my own dvd rip of this great documentary--SNACH--

Legacy of Torture: The War Against the Black Liberation Movement (2006)


Program Info
"The same people who tried to kill me in 1973 are the same people who are here
today, trying to destroy me. I mean it literally. I mean there were people from
the forces of the San Francisco Police Department who participated in harrassment,
torture and my interrogation in 1973
...none of these people have ever been brought to trial. None of these people
have ever been charged with anything. None of these people have ever been
questioned about that."
-John Bowman, former Black Panther, passed away December 2006

In 2005 several former members of the Black Panther Party were held in contempt
and jailed for refusing to testify before a Sanc Francisco Grand Jury
investigating a police shooting that took place in 1971. The government alleged
that Black radical groups were involved in the 34-year old case in which two men
armed with shotguns attacked the Ingleside Police Station resulting in the death
of a police sergeant and the injuring of a civilian clerk.

In 1973, 13 alleged "Black militants" were arrested in New Orleans, purportedly
in connection with the San Francisco events. Some of them were tortured for
several days by law enforcement authorities, in striking similarity to the
horrors visited upon detainees in Guantanamo and Abu Ghraib.

In 1975, a Federal Court in San Francisco threw out all of the evidence obtained
in New Orleans.

The two lead San Francisco Police Department investigators from over 30 years
ago, along with FBI agents, have re-opened the case. Rather than submit to
proceedings they felt were abusive of the law and the Constitution, five men
chose to stand in contempt of court and were sent to jail. They were released
when the Grand Jury term expired, but have been told by prosecutors that "ït
isn't over yet."

U.S/2006/Color/28 Minutes/4:3/English

Directed, Produced and Edited by:
Andres Alegria, Claude Marks & The Freedom Archives

Interviewees: Ray Boudreaux, John Bowman (deceased), Richard Brown, Soffiyah
Elijah, Hank Jones & Harold Taylor

For more information contact:
Committee for Defense of Human Rights (CDHR)
PO Box 90221
Pasadena, CA 91109
www.CDHRsupport.org
or
The Freedom Archives
www.freedomarchives.org
522 Valencia St. SF 94110


Video Info
Legacy.of.Torture.2006.DVDrip.xvid.mp3-snach.avi

Format : AVI
Format/Info : Audio Video Interleave
File size : 368 MiB
Duration : 28mn 18s
Overall bit rate : 1 817 Kbps
Movie name : LEGACY_OF_TORTURE.Title1.DVDRip
Writing application : Lavf52.33.0
Original source form/Name : LEGACY_OF_TORTURE

Video
ID : 0
Format : MPEG-4 Visual
Format profile : [email protected]
Format settings, BVOP : No
Format settings, QPel : No
Format settings, GMC : No warppoints
Format settings, Matrix : Default (H.263)
Codec ID : XVID
Codec ID/Hint : XviD
Duration : 28mn 18s
Bit rate : 1 675 Kbps
Width : 576 pixels
Height : 432 pixels
Display aspect ratio : 4/3
Frame rate : 29.970 fps
Resolution : 24 bits
Colorimetry : 4:2:0
Scan type : Progressive
Bits/(Pixel*Frame) : 0.225
Stream size : 339 MiB (92%)
Writing library : XviD 1.2.1 (UTC 2008-12-04)

Audio
ID : 1
Format : MPEG Audio
Format version : Version 1
Format profile : Layer 3
Codec ID : 55
Codec ID/Hint : MP3
Duration : 28mn 18s
Bit rate mode : Constant
Bit rate : 128 Kbps
Channel(s) : 2 channels
Sampling rate : 48.0 KHz
Resolution : 16 bits
Stream size : 25.9 MiB (7%)
Alignment : Aligned on interleaves
Interleave, duration : 24 ms (0.72 video frame)


Trackers
http://tracker.conspiracycentral.net/announce
http://www.h33t.com:3310/announce
http://inferno.demonoid.com:3417/announce
http://tracker.thepiratebay.org/announce
http://tracker.openbittorrent.com/announce

Visit & Join us at:
http://ConspiracyCentral.net

related torrents

Torrent name

health leech seeds Size
 

comments (0)

Main Menu