Documentary

Killer Instinct Grosskatzen German Doku FS DVDRip XVID avi

  • Download 5x Faster
  • Download torrent
  • Direct Download
  • Rate this torrent +  |  -
Killer Instinct Grosskatzen German Doku FS DVDRip XVID avi

Free and Direct Download with Usenet 300GB+ free


Torrent info

Name:Killer Instinct Grosskatzen German Doku FS DVDRip XVID avi

Total Size: 500.02 MB

Magnet: Magnet Link

Seeds: 0

Leechers: 0

Stream: Watch Online @ Movie4u

Last Updated: 2010-03-26 16:26:36 (Update Now)

Torrent added: 2009-09-01 15:51:14




Torrent Files List


Killer.Instinct.Grosskatzen.German.Doku.FS.DVDRip.XVID.avi (Size: 500.02 MB) (Files: 1)

 Killer.Instinct.Grosskatzen.German.Doku.FS.DVDRip.XVID.avi

500.02 MB
 

Announce URL: http://tbunker.dyndns.dk/announce.php

Torrent description

Killer Instinct - Großkatzen

Story:
[Killer Instinct ist eine der weltweit erfolgreichsten Naturfilmserien.
Über ihren Protagonisten Rob Bredl gibt es viel zu erzählen. Er ist
ein begnadeter und erfahrener Jäger, ein Naturschützer, ein großer
Tierfreund, ein ausgezeichneter Busch-Koch und ein guter Lehrer.
Hier zeigt er Ihnen, wie Löwen und Geparden durch die Savanne
pirschen, diese Raubtiere, die zwar so wirken, aber alles andere
als Kuscheltiere sind. Es sind erbarmungslose, tödlich effiziente
Räuber der höchsten Ordnung, die töten, um zu fressen. Sogar Menschen
wurden schon angegriffen, und wir blicken zurück auf Tragödien wie die
von Tsavo in Kenia, wo 140 Menschen zwei streunenden Löwen zum Opfer fielen.
Rob spricht mit Experten von Weltrang, um das Verhalten dieser
vollendeten Raubtiere zu verstehen: Wie sie jagen, töten und überleben.


Allgemein
Vollständiger Name : Killer.Instinct.Grosskatzen.German.Doku.FS.DVDRip.XVID.avi
Format : AVI
Format/Info : Audio Video Interleave
Dateigre : 500 MiB
Duration : 45min
Gesamte Bitrate : 1524 Kbps
Verwendetes Programm : VirtualDubMod 1.5.4.1 (build 2178/release)
verwendete Encoder-Bibliothek : VirtualDubMod build 2178/release

Video
Format : MPEG-4 Visual
Format profile : Streaming [email protected]
Format settings, BVOP : Ja
Format settings, QPel : Nein
Format settings, GMC : No warpoints
Format settings, Matrix : Custom
Codec ID : XVID
Codec ID/Hint : XviD
Duration : 45min
Bitrate : 1368 Kbps
Breite : 464 Pixel
Höhe : 352 Pixel
Bildseitenverhältnis : 4/3
Bildwiederholungsrate : 25.000 FPS
Auflösung : 8 bits
Colorimetry : 4:2:0
Scan type : Progressive
Bits/(Pixel*Frame) : 0.335
Stream size : 449 MiB
verwendete Encoder-Bibliothek : XviD 50

Audio
Format : MPEG Audio
Format version : Version 1
Format profile : Layer 3
Codec ID : 55
Codec ID/Hint : MP3
Duration : 45min
Bitraten-Modus : Variable
Bitrate : 142 Kbps
Minimum bit rate : 160 Kbps
Kanäle : 2 Kanäle
Samplingrate : 48.0 KHz
Auflösung : 16 bits
Stream size : 46.8 MiB
verwendete Encoder-Bibliothek : LAME3.98r
Kodierungseinstellungen : ABR

related torrents

Torrent name

health leech seeds Size
 

comments (0)

Main Menu