Music Videos

Soda Stereo De Musica Ligera (Gira me veras volver 2007) (DVDRip) [Dodecahedron]

  • Download 5x Faster
  • Download torrent
  • Direct Download
  • Rate this torrent +  |  -

Torrent info

Name:Soda Stereo De Musica Ligera (Gira me veras volver 2007) (DVDRip) [Dodecahedron]

Total Size: 172.23 MB

Magnet: Magnet Link

Seeds: 0

Leechers: 0

Stream: Watch Online @ Movie4u

Last Updated: 2010-11-18 16:39:16 (Update Now)

Torrent added: 2009-09-01 15:39:16




Torrent Files List


info.txt (Size: 172.23 MB) (Files: 2)

 info.txt

4.14 KB

 Soda Stereo - De Musica Ligera (Gira me veras volver 2007) (DVDRip) [Dodecahedron].avi

172.23 MB
 

Announce URL: http://tracker.publicbt.com:80/announce

Torrent description

Soda Stereo - De Musica Ligera (Gira me veras volver 2007) (DVDRip) [Dodecahedron]


Soda Stereo was an Argentine rock trio formed in 1982 consisting of guitarist and vocalist Gustavo Cerati, bassist Zeta Bosio and drummer Charly Alberti. The band established what would become the template for many other popular spanish-speaking pop and rock music groups: clever, often mysterious lyrics, pleasing musical arrangements and an elaborate and glamorous aesthetic image. The band has sold over 7 million copies across Latin America.

With the release of albums such as Signos, Doble Vida and Canción Animal, Soda Stereo became one of the most critically acclaimed Argentine rock bands, being the first one to tour through Latin America, and achieving a success that no other local rock band had achieved before.

In 1997, after a farewell tour through various countries and finally Argentina, they disbanded due to personal problems between the members and different artistic criteria. On September 20, Soda Stereo played their last show, in front of 75,000 people at the Estadio Monumental (or River Plate Stadium) in Buenos Aires.

During 2007, after 10 years of their dissolution, rumours stated that Soda Stereo would tour South America before the end of the year. A reunion tour was finally announced on June 9, 2007 as the "Me Verás Volver" tour ("You Will See Me Come Back", referring to lyrics on Doble Vida's "En la Ciudad de la Furia"). The tour started at the River Plate stadium on October 19, 2007, where they played "El Último Concierto" in 1997.

Me Verás Volver featured concerts in different countries of America. Initially, the band announced two concerts at River, but 90,000 tickets were sold in only 24 hours, and the band added one more show to the schedule, and after three days, the tickets for the first three shows were sold out, so they added another two more shows in Argentina to the tour. The expected amount of fans attending the five shows was more than 300,000, making Soda Stereo one of the most watched public events in the country.

22 shows were performed, all but two of them sold out. The schedule included one show in Ecuador, Venezuela, Colombia and Panama; two shows in Peru's Estadio Nacional and in Chile's Estadio Nacional; three shows in the United States, one on The Home Depot Center (Los Angeles, California) and two in the American Airlines Arena (Miami, Florida); four in Mexico and six in Argentina, becoming the only band to play more than five times in the Estadio Monumental in a single tour. After the tour, the members of the band have continued with their individual careers.

Source: http://en.wikipedia.org/wiki/Soda_stereo

----

To celebrate my last torrent reaching 1000 downloads in 2 days, here is more of Gustavo Cerati, this time shining with Soda Stereo.

Artist: Soda Stereo
Country: Argentina
Song: (de) Música Ligera (Live in Buenos Aires 2007.10.19)

Gustavo Cerati - Vocals, Guitars
Zeta Bosio - Bass
Charly Alberti - Drums

File Info
Source: DVD Soda Stereo - Gira me Veras Volver (Disc 1/2)
Track 24/29: (de) Música Ligera.

General
Format : AVI
File size : 172 MiB
Duration : 3mn 47s
Overall bit rate : 6344 Kbps
Video
Format : MPEG-4 Visual
Format settings, BVOP : Yes
Format settings, QPel : No
Format settings, GMC : No warppoints
Format settings, Matrix : Custom
Codec ID : XVID
Duration : 3mn 47s
Bit rate : 6077 Kbps
Width : 720 pixels
Height : 544 pixels
Display aspect ratio : 4/3
Frame rate : 29.970 fps
Resolution : 8 bits
Colorimetry : 4:2:0
Scan type : Progressive
Bits/(Pixel*Frame) : 0.518
Stream size : 165 MiB (96%)
Writing library : XviD 50
Audio
Format : AC-3
Duration : 3mn 47s
Bit rate mode : Constant
Bit rate : 256 Kbps
Channel(s) : 2 channels
Sampling rate : 48.0 KHz
Stream size : 6.95 MiB (4%)
Alignment : Aligned on interleaves
Interleave, duration : 33 ms (1.00 video frame)

--
Brought to you by Dodecahedron. Enjoy and seed! :)

related torrents

Torrent name

health leech seeds Size
 

comments (0)

Main Menu