Documentary

Josef Mengele The Angel of Dead 2004[TVRip] [Eng] VHSRips

  • Download 5x Faster
  • Download torrent
  • Direct Download
  • Rate this torrent +  |  -
Josef Mengele The Angel of Dead 2004[TVRip] [Eng] VHSRips

Anonymous and Free Direct Download 300GB+


Torrent info

Name:Josef Mengele The Angel of Dead 2004[TVRip] [Eng] VHSRips

Total Size: 341.77 MB

Magnet: Magnet Link

Seeds: 0

Leechers: 0

Stream: Watch Online @ Movie4u

Last Updated: 2014-10-13 08:27:56 (Update Now)

Torrent added: 2009-09-01 15:38:42



VPN For Torrents

Torrent Files List


Screen (Size: 341.77 MB) (Files: 3)

 Screen

  Josef Mengele - The Doctor of Dead (Screen).jpg

385.33 KB

 Josef.Mengele-The.Angel.of.Dead.2004[TVRip]-[Eng]-VHSRips.avi

341.39 MB

 Josef Mengele - The Angel of [email protected]_info.txt

3.19 KB
 

Announce URL:

Torrent description


::: VHSRips for sharing! :::

*************************************************************************************************
General Movie Info:
*************************************************************************************************


Complete name : Josef Mengele - The Angel of Dead.avi
Format : AVI
Format/Info : Audio Video Interleave
File size : 341 MiB
Duration : 42mn 25s
Overall bit rate : 1 125 Kbps
Writing application : Lavf52.16.0


Video
Format : MPEG-4 Visual
Format profile : [email protected]
Format settings, BVOP : No
Format settings, QPel : No
Format settings, GMC : No warppoints
Format settings, Matrix : Default (H.263)
Codec ID : DIVX
Codec ID/Info : Project Mayo
Codec ID/Hint : DivX 4
Duration : 42mn 25s
Bit rate : 985 Kbps
Width : 544 pixels
Height : 436 pixels
Display aspect ratio : 4/3
Frame rate : 23.976 fps
Resolution : 24 bits
Colorimetry : 4:2:0
Scan type : Progressive
Bits/(Pixel*Frame) : 0.173
Stream size : 299 MiB (88%)


Audio
Format : MPEG Audio
Format version : Version 1
Format profile : Layer 3
Codec ID : 55
Codec ID/Hint : MP3
Duration : 42mn 24s
Bit rate mode : Constant
Bit rate : 128 Kbps
Channel(s) : 2 channels
Sampling rate : 44.1 KHz
Resolution : 16 bits
Stream size : 38.8 MiB (11%)
Alignment : Aligned on interleaves
Interleave, duration : 26 ms (0.63 video frame)
Interleave, preload duration : 522 ms
Writing library : LAME3.97
Screen : Josef Mengele The Angel of Dead 2004[TVRip] [Eng] VHSRips preview 0

*************************************************************************************************
Plot:
*************************************************************************************************

Dr Josef Mengele (March 16, 1911 – February 7, 1979), was a German SS officer and a physician in
the Nazi concentration camp Auschwitz. He did terrible medical experiments on the people in
the camps, these experiments including freezing someone to death and placing the subject under
heatlamps until death. Mengele was also know for his studies and fascination with twins.
Mengele was known as the Angel of Death. After war, he first hid in Germany, then escaped and
lived in South America until drowning in Brazil.

*************************************************************************************************

::: VHSRips for sharing! :::

related torrents

Torrent name

health leech seeds Size
 


comments (0)

Main Menu