Action

Halo Wars[2009]DvDrip LW [Bit Byte]

  • Download 5x Faster
  • Download torrent
  • Direct Download
  • Rate this torrent +  |  -
Halo Wars[2009]DvDrip LW [Bit Byte]

Anonymous and Free Direct Download


Torrent info

Name:Halo Wars[2009]DvDrip LW [Bit Byte]

Total Size: 233.00 MB

Magnet: Magnet Link

Seeds: 0

Leechers: 0

Stream: Watch Online @ Movie4u

Last Updated: 2015-10-20 06:32:02 (Update Now)

Torrent added: 2009-09-01 15:37:37



VPN For Torrents

Torrent Files List


Cover (Size: 233.00 MB) (Files: 6)

 Cover

  Cover.jpg

64.54 KB

 Info

  Movie Info.nfo

3.99 KB

  Movie Info.txt

2.84 KB

 Movie

  Halo Wars[2009]DvDrip-LW.mp4

232.94 MB

 Trackers

  Torrent_downloaded_from_Demonoid.com.txt

0.05 KB

  tracked_by_h33t_com.txt

0.02 KB
 

tracker

leech seeds
 

Torrent description

ßßßßßßßßßßßßßßßßßßßßßßßßßßßßßßßßßßßßßßßßßßßßßßßßßßßßßßßßßßßßßßßßßßßßßß

Û°°°°°°°°°°°°°°°°°°°°°°°°°°Û
ÛÛ Halo Wars[2009]DvDrip-LW ÛÛ
Û°°°°°°°°°°°°°°°°°°°°°°°°°°Û

File Name : Halo Wars[2009]DvDrip-LW
Type : Movie
Format : MP4
File Size : 232 MB
Duration : 00:30:17
Language : English
Source : DvD
Subtitles : None
Genre : Action | Sci-Fi
IMDB Link : http://www.imdb.com/title/tt0879404/
IMDB Rating : 7.9/10
IMDB Votes : 77 Votes
ÜÜÜÜÜÜÜÜÜÜÜÜÜÜÜÜÜÜÜÜÜÜÜÜÜÜÜÜÜÜÜÜÜÜÜÜÜÜÜÜÜÜÜÜÜÜÜÜÜÜÜÜÜÜÜÜÜÜÜÜÜÜÜÜÜÜÜÜÜÜ

Û°°°°°°°°°°°°°°°°°°°°°°°°Û
ÛÛ Video Info ÛÛ
Û°°°°°°°°°°°°°°°°°°°°°°°°Û

Format : MPEG-4 Visual
Format profile : [email protected]
Format settings, BVOP : No
Format settings, QPel : No
Format settings, GMC : No warppoints
Format settings, Matrix : Default (H.263)
Codec ID : 20
Duration : 30mn 18s
Bit rate mode : Constant
Bit rate : 975 Kbps
Nominal bit rate : 1 024 Kbps
Width : 640 pixels
Height : 272 pixels
Display aspect ratio : 2.35
Frame rate mode : Constant
Frame rate : 30.000 fps
Resolution : 24 bits
Colorimetry : 4:2:0
Scan type : Progressive
Bits/(Pixel*Frame) : 0.187
Stream size : 211 MiB (91%)
ÜÜÜÜÜÜÜÜÜÜÜÜÜÜÜÜÜÜÜÜÜÜÜÜÜÜÜÜÜÜÜÜÜÜÜÜÜÜÜÜÜÜÜÜÜÜÜÜÜÜÜÜÜÜÜÜÜÜÜÜÜÜÜÜÜÜÜÜÜÜ

Û°°°°°°°°°°°°°°°°°°°°°°°°Û
ÛÛ Sound Info ÛÛ
Û°°°°°°°°°°°°°°°°°°°°°°°°Û

Format : AAC
Format/Info : Advanced Audio Codec
Format version : Version 4
Format profile : LC
Format settings, SBR : No
Codec ID : 40
Duration : 30mn 17s
Bit rate mode : Constant
Bit rate : 96.0 Kbps
Nominal bit rate : 48.0 Kbps
Channel(s) : 2 channels
Channel positions : L R
Sampling rate : 24.0 KHz
Resolution : 16 bits
Stream size : 20.8 MiB (9%)
ÜÜÜÜÜÜÜÜÜÜÜÜÜÜÜÜÜÜÜÜÜÜÜÜÜÜÜÜÜÜÜÜÜÜÜÜÜÜÜÜÜÜÜÜÜÜÜÜÜÜÜÜÜÜÜÜÜÜÜÜÜÜÜÜÜÜÜÜÜÜ

Û°°°°°°°°°°°°°°°°°°°°°°°°Û
ÛÛ Plot ÛÛ
Û°°°°°°°°°°°°°°°°°°°°°°°°Û

The action takes place 20 years before the events
Halo: Combat Evolved . Cruiser Spirit of Fire ,
sent to the United Nations Space Command (OSCC),
ordered to investigate and stop the action on the
planet Harvest, Covenant (the place of first contact
with aliens). Learning about the mysterious excavation
covenants under the leadership of the unknown Judge
Captain bark ...... James Cutter sends his soldiers
to find out what happens.
ÜÜÜÜÜÜÜÜÜÜÜÜÜÜÜÜÜÜÜÜÜÜÜÜÜÜÜÜÜÜÜÜÜÜÜÜÜÜÜÜÜÜÜÜÜÜÜÜÜÜÜÜÜÜÜÜÜÜÜÜÜÜÜÜÜÜÜÜÜÜ

ScreenShots

[url]Halo Wars[2009]DvDrip LW [Bit Byte] preview 1[/url]

[url]Halo Wars[2009]DvDrip LW [Bit Byte] preview 2[/url]

[url]Halo Wars[2009]DvDrip LW [Bit Byte] preview 3[/url]

[url]Halo Wars[2009]DvDrip LW [Bit Byte] preview 0[/url]

related torrents

Torrent name

health leech seeds Size
 


comments (0)

Main Menu