Documentary

JFK Directors Cut Disc2: "Beyond JFK" (1992) [h33t][snach]

  • Download 5x Faster
  • Download torrent
  • Direct Download
  • Rate this torrent +  |  -
JFK Directors Cut Disc2: "Beyond JFK" (1992) [h33t][snach]

Free and Direct Download with Usenet 300GB+ free


Torrent info

Name:JFK Directors Cut Disc2: "Beyond JFK" (1992) [h33t][snach]

Total Size: 979.84 MB

Magnet: Magnet Link

Seeds: 2

Leechers: 3

Stream: Watch Online @ Movie4u

Last Updated: 2011-01-05 15:40:25 (Update Now)

Torrent added: 2009-09-01 15:30:51




Torrent Files List


Assassination.Update-The.New.Documents.2001.DVDrip.xvid.mp3-snach.avi (Size: 979.84 MB) (Files: 6)

 Assassination.Update-The.New.Documents.2001.DVDrip.xvid.mp3-snach.avi

200.15 MB

 Beyond.JFK.1992.DVDrip.xvid.mp3-snach.avi

705.24 MB

 INFO.txt

7.89 KB

 Meet.Mr.X.Fletcher.Prouty.2001.DVDrip.xvid.mp3-snach.avi

74.44 MB

 Torrent downloaded from Demonoid.com.txt

0.05 KB

 tracked_by_h33t_com.txt

0.02 KB
 

Announce URL: http://www.h33t.com:3310/announce

Torrent description

--this is my own dvd rip of this great documentary--SNACH--

Beyond JFK: The Question of Conspiracy (1992)


Program Info
Picks up where the film leaves off.
Beyond JFK is a documentary about the facts and stories that were the basis for
Oliver Stone's film JFK. The video covers the arrests of Clay Shaw, David Ferrie,
and Lee Oswald, including rarely seen footage. It also shows extremely rare
interviews with Dean Andrews, Clay Shaw, Jim Garrison, Lou Ivon, Marina Oswald,
and Jim Marrs - to name a few.

This video is basically a re-hash of the movie, but it's interesting because we
get to see who these characters actually were and we get to hear, in their words,
what they were thinking at the time of Garrison's infamous trial, and what they
have to say about it now.

U.S./1992/Color/90 Minutes/4:3/Mono Mix/English

Directors: Barbara Kopple & Danny Schechter


Video Info
Beyond.JFK.1992.DVDrip.xvid.mp3-snach.avi

Format : AVI
Format/Info : Audio Video Interleave
File size : 705 MiB
Duration : 1h 30mn
Overall bit rate : 1 095 Kbps
Movie name : JFK_DIRECTORS_CUT_DISC2.Title1.DVDRip
Writing application : Lavf52.33.0
Original source form/Name : JFK_DIRECTORS_CUT_DISC2

Video
ID : 0
Format : MPEG-4 Visual
Format profile : [email protected]
Format settings, BVOP : No
Format settings, QPel : No
Format settings, GMC : No warppoints
Format settings, Matrix : Default (H.263)
Codec ID : XVID
Codec ID/Hint : XviD
Duration : 1h 30mn
Bit rate : 953 Kbps
Width : 448 pixels
Height : 336 pixels
Display aspect ratio : 4/3
Frame rate : 29.970 fps
Resolution : 24 bits
Colorimetry : 4:2:0
Scan type : Progressive
Bits/(Pixel*Frame) : 0.211
Stream size : 614 MiB (87%)
Writing library : XviD 1.2.1 (UTC 2008-12-04)

Audio
ID : 1
Format : MPEG Audio
Format version : Version 1
Format profile : Layer 3
Codec ID : 55
Codec ID/Hint : MP3
Duration : 1h 30mn
Bit rate mode : Constant
Bit rate : 128 Kbps
Channel(s) : 2 channels
Sampling rate : 48.0 KHz
Resolution : 16 bits
Stream size : 82.5 MiB (12%)
Alignment : Aligned on interleaves
Interleave, duration : 24 ms (0.72 video frame)


Extras
Assassination Update - The New Documents (2001)

Produced and Directed by Charles Kiselyak
Narration by Jim DiEugenio
Written by Jim DiEugenio


Video Info
Assassination.Update-The.New.Documents.2001.DVDrip.xvid.mp3-snach.avi

Format : AVI
Format/Info : Audio Video Interleave
File size : 200 MiB
Duration : 29mn 42s
Overall bit rate : 942 Kbps
Movie name : JFK_DIRECTORS_CUT_DISC2.Title21.DVDRip
Writing application : Lavf52.33.0
Original source form/Name : JFK_DIRECTORS_CUT_DISC2

Video
ID : 0
Format : MPEG-4 Visual
Format profile : [email protected]
Format settings, BVOP : No
Format settings, QPel : No
Format settings, GMC : No warppoints
Format settings, Matrix : Default (H.263)
Codec ID : XVID
Codec ID/Hint : XviD
Duration : 29mn 42s
Bit rate : 800 Kbps
Width : 448 pixels
Height : 336 pixels
Display aspect ratio : 4/3
Frame rate : 29.970 fps
Resolution : 24 bits
Colorimetry : 4:2:0
Scan type : Progressive
Bits/(Pixel*Frame) : 0.177
Stream size : 170 MiB (85%)
Writing library : XviD 1.2.1 (UTC 2008-12-04)

Audio
ID : 1
Format : MPEG Audio
Format version : Version 1
Format profile : Layer 3
Codec ID : 55
Codec ID/Hint : MP3
Duration : 29mn 42s
Bit rate mode : Constant
Bit rate : 128 Kbps
Channel(s) : 2 channels
Sampling rate : 48.0 KHz
Resolution : 16 bits
Stream size : 27.2 MiB (14%)
Alignment : Aligned on interleaves
Interleave, duration : 24 ms (0.72 video frame)


Meet Mr. X: The Personality and Thoughts of Fletcher Prouty (2001)

Produced and Directed by Charles Kiselyak
Interview Conducted and Provided by Len Osanic


Video Info
Meet.Mr.X.Fletcher.Prouty.2001.DVDrip.xvid.mp3-snach.avi

Format : AVI
Format/Info : Audio Video Interleave
File size : 74.4 MiB
Duration : 11mn 2s
Overall bit rate : 942 Kbps
Movie name : JFK_DIRECTORS_CUT_DISC2.Title20.DVDRip
Writing application : Lavf52.33.0
Original source form/Name : JFK_DIRECTORS_CUT_DISC2

Video
ID : 0
Format : MPEG-4 Visual
Format profile : [email protected]
Format settings, BVOP : No
Format settings, QPel : No
Format settings, GMC : No warppoints
Format settings, Matrix : Default (H.263)
Codec ID : XVID
Codec ID/Hint : XviD
Duration : 11mn 2s
Bit rate : 800 Kbps
Width : 448 pixels
Height : 336 pixels
Display aspect ratio : 4/3
Frame rate : 29.970 fps
Resolution : 24 bits
Colorimetry : 4:2:0
Scan type : Progressive
Bits/(Pixel*Frame) : 0.177
Stream size : 63.2 MiB (85%)
Writing library : XviD 1.2.1 (UTC 2008-12-04)

Audio
ID : 1
Format : MPEG Audio
Format version : Version 1
Format profile : Layer 3
Codec ID : 55
Codec ID/Hint : MP3
Duration : 11mn 2s
Bit rate mode : Constant
Bit rate : 128 Kbps
Channel(s) : 2 channels
Sampling rate : 48.0 KHz
Resolution : 16 bits
Stream size : 10.1 MiB (14%)
Alignment : Aligned on interleaves
Interleave, duration : 24 ms (0.72 video frame)

Additional content can be found at the
Col. L. Fletcher Prouty Reference Site at
Prouty.org


Trackers
http://tracker.conspiracycentral.net/announce
http://www.h33t.com:3310/announce
http://inferno.demonoid.com:3417/announce
http://tracker.thepiratebay.org/announce
http://tracker.openbittorrent.com/announce

Visit & Join us at:
http://ConspiracyCentral.net

related torrents

Torrent name

health leech seeds Size
 

comments (0)

Main Menu