Documentary

Innocents Betrayed iPod chakra71

  • Download 5x Faster
  • Download torrent
  • Direct Download
  • Rate this torrent +  |  -
Innocents Betrayed iPod chakra71

Anonymous and Free Direct Download 300GB+


Torrent info

Name:Innocents Betrayed iPod chakra71

Total Size: 386.39 MB

Magnet: Magnet Link

Seeds: 0

Leechers: 0

Stream: Watch Online @ Movie4u

Last Updated: 2010-09-25 09:03:55 (Update Now)

Torrent added: 2009-09-01 15:08:26



VPN For Torrents

Torrent Files List


info.txt (Size: 386.39 MB) (Files: 3)

 info.txt

6.53 KB

 Innocents.Betrayed.Gun.Control.History.m4v

386.30 MB

 Innocents.Betrayed.jpg

84.74 KB
 

Announce URL: http://tpb.tracker.thepiratebay.org:80/announce

Torrent description

INNOCENTS BETRAYED

58 minutes that will open eyes. Destroy myths. Change minds. Save lives.

You have never seen anything like Innocents Betrayed. This story has never been told in a documentary film.

You never received the facts of Innocents Betrayed in public schools, and likely not in the private schools. Neither do your kids now.

See the Proof Sit and watch for just 58 minutes. You'll see the photos, the footage, the people, the faces. You'll read the laws and hear the proclamations. You'll witness just enough horror to understand how easy it is for armed killers to slaughter the disarmed, the powerless, the innocents.

Genocide examples from all over the world: Russia, China, Germany, Cambodia, Guatemala, Uganda, Rwanda and more. Examples showing how disarmed people in America have suffered persecution, mass murder, slavery, and terrorist attacks.

A fast-moving, modern production, Innocents Betrayed presents the entirely true accounts of how civilian disarmament made possible the killing of millions. The point is made sharply, clearly, unforgettably. It's the factual counterpoint to the lies in Michael Moore's "Bowling for Columbine."

Shatter the Myths Somebody says: "Only the police and military should have guns; private citizens don't need them." Your response: play the tape. Show what happens when the government alone has all power.

Somebody says: "It's sensible to license guns and register their owners." Your response: play the tape. Show how licensing and registration were key elements to disarming populations, leaving them vulnerable to methodical slaughter.

Somebody says: "America should follow the lead of the rest of the world— strict 'gun control.'" Your response: play the tape. Show how the "rest of the world" lost 170,000,000 innocent, non-combatant men, women and children. Millions died because they were defenseless ... just look at the pictures ... see the numbers ... look into the eyes of the victims.

Somebody says: "It can't happen here." Your response: play the tape. Watch the American Experience segment and learn ... it already happened here. Mass murders, vicious brutality. The victims—disarmed and powerless, by law. See with your own eyes the facts that the mainstream media has ignored and concealed for decades.

Change the Nation Innocents Betrayed can move America solidly back to its basic principles. The people have the rights. The people control the government. The government serves the people. The people keep the power so that government can not grow oppressive. These basic principles are what the Second Amendment recognizes and protects.

There are about 80 million gun owners in America. The vast majority are decent, nonviolent, non-criminal citizens. Most of them don't get involved. They don't understand how vital it is to protect the right to private firearms ownership.

We need to awaken these gun owners, to energize them, to get them committed to protecting our rights. Innocents Betrayed is the best tool to rouse them, shake them, motivate them to join in the fight like never before.

There are millions of pro-self defense parents in America. We need to help those parents teach their children about firearms ownership. Why it's so crucially important. Why they must help—and vote to support—the cause of freedom and firearms ownership.

We need those parents to show their kids Innocents Betrayed.

In many households, one spouse understands firearms ownership. The other spouse doesn't understand, is afraid of guns, thinks guns are just ugly dangerous killing machines, is against having a gun in the house.

We need to show those spouses Innocents Betrayed.

http://www.innocentsbetrayed.com/
http://www.jpfo.org/
http://infowars-shop.stores.yahoo.net/inbe.html

-----------------------------------

Transcoded to iPod compatible format from http://thepiratebay.org/torrent/4091070/ thanks to modjaso for posting.

General
Format : MPEG-4
File size : 386 MiB
Duration : 57mn 57s
Overall bit rate : 932 Kbps

Video
Format/Info : Advanced Video Codec
Format profile : [email protected]
Format settings, CABAC : No
Duration : 57mn 57s
Bit rate mode : Variable
Bit rate : 800 Kbps
Width : 560 pixels
Height : 416 pixels
Display aspect ratio : 4/3
Frame rate : 29.970 fps
Scan type : Progressive
Stream size : 332 MiB (86%)
Writing library : x264 core 65

Audio
Format/Info : Advanced Audio Codec
Format version : Version 4
Format profile : LC
Codec ID : 40
Duration : 57mn 57s
Bit rate mode : Variable
Bit rate : 128 Kbps
Maximum bit rate : 236 Kbps
Channel(s) : 2 channels
Sampling rate : 48.0 KHz
Stream size : 53.0 MiB (14%)

related torrents

Torrent name

health leech seeds Size

Innocents Betrayed

0 2 136.00 MB 0
 


comments (0)

Main Menu