Documentary

IMAX Space Station 720p BRRip XviD NSJ Ace HD net

  • Download 5x Faster
  • Download torrent
  • Direct Download
  • Rate this torrent +  |  -
IMAX Space Station 720p BRRip XviD NSJ Ace HD net

Anonymous and Free Direct Download 300GB+


Torrent info

Name:IMAX Space Station 720p BRRip XviD NSJ Ace HD net

Total Size: 1.04 GB

Magnet: Magnet Link

Seeds: 0

Leechers: 0

Stream: Watch Online @ Movie4u

Last Updated: 2010-07-29 23:33:53 (Update Now)

Torrent added: 2009-09-01 15:00:01



VPN For Torrents

Torrent Files List


IMAX.Space.Station.720p.BRRip.XviD-NSJ.nfo (Size: 1.04 GB) (Files: 25)

 IMAX.Space.Station.720p.BRRip.XviD-NSJ.nfo

5.32 KB

 IMAX.Space.Station.720p.BRRip.XviD-NSJ.r00

47.70 MB

 IMAX.Space.Station.720p.BRRip.XviD-NSJ.r01

47.70 MB

 IMAX.Space.Station.720p.BRRip.XviD-NSJ.r02

47.70 MB

 IMAX.Space.Station.720p.BRRip.XviD-NSJ.r03

47.70 MB

 IMAX.Space.Station.720p.BRRip.XviD-NSJ.r04

47.70 MB

 IMAX.Space.Station.720p.BRRip.XviD-NSJ.r05

47.70 MB

 IMAX.Space.Station.720p.BRRip.XviD-NSJ.r06

47.70 MB

 IMAX.Space.Station.720p.BRRip.XviD-NSJ.r07

47.70 MB

 IMAX.Space.Station.720p.BRRip.XviD-NSJ.r08

47.70 MB

 IMAX.Space.Station.720p.BRRip.XviD-NSJ.r09

47.70 MB

 IMAX.Space.Station.720p.BRRip.XviD-NSJ.r10

47.70 MB

 IMAX.Space.Station.720p.BRRip.XviD-NSJ.r11

47.70 MB

 IMAX.Space.Station.720p.BRRip.XviD-NSJ.r12

47.70 MB

 IMAX.Space.Station.720p.BRRip.XviD-NSJ.r13

47.70 MB

 IMAX.Space.Station.720p.BRRip.XviD-NSJ.r14

47.70 MB

 IMAX.Space.Station.720p.BRRip.XviD-NSJ.r15

47.70 MB

 IMAX.Space.Station.720p.BRRip.XviD-NSJ.r16

47.70 MB

 IMAX.Space.Station.720p.BRRip.XviD-NSJ.r17

47.70 MB

 IMAX.Space.Station.720p.BRRip.XviD-NSJ.r18

47.70 MB

 IMAX.Space.Station.720p.BRRip.XviD-NSJ.r19

47.70 MB

 IMAX.Space.Station.720p.BRRip.XviD-NSJ.r20

47.70 MB

 IMAX.Space.Station.720p.BRRip.XviD-NSJ.r21

15.86 MB

 IMAX.Space.Station.720p.BRRip.XviD-NSJ.rar

47.70 MB

 IMAX.Space.Station.720p.BRRip.XviD-NSJ.sfv

1.19 KB
 

Announce URL: http://www.ace-hd.net/announce.php

Torrent description

IMAX.Space.Station.720p.BRRip.XviD-NSJ

Format: AVI
Format/Info: Audio Video Interleave
File size: 1.04 GiB
Duration: 47mn 11s
Overall bit rate: 3 145 Kbps
Writing application: VirtualDubMod 1.5.10.2 (build 2540/release)
Writing library: VirtualDubMod build 2540/release

Video
Format: MPEG-4 Visual
Format profile: Streaming [email protected]
Format settings, BVOP: Yes
Format settings, QPel: No
Format settings, GMC: No warppoints
Format settings, Matrix: Default
Muxing mode: Packed bitstream
Codec ID: XVID
Codec ID/Hint: XviD
Duration: 47mn 11s
Bit rate: 2 496 Kbps
Width: 1 280 pixels
Height: 720 pixels
Display aspect ratio: 16/9
Frame rate: 23.976 fps
Resolution: 24 bits
Colorimetry: 4:2:0
Scan type: Progressive
Bits/(Pixel*Frame): 0.113
Stream size: 842 MiB (79%)
Writing library: XviD 1.2.1 (UTC 2008-12-04)

Audio
Format: AC-3
Format/Info: Audio Coding 3
Codec ID: 2000
Duration: 47mn 11s
Bit rate mode: Constant
Bit rate: 640 Kbps
Channel(s): 6 channels
Channel positions: Front: L C R, Surround: L R, LFE
Sampling rate: 48.0 KHz
Stream size: 216 MiB (20%)
Alignment: Split accross interleaves
Interleave, duration: 42 ms (1.00 video frame)
Interleave, preload duration: 500 ms

related torrents

Torrent name

health leech seeds Size
 


comments (0)

Main Menu