Documentary

IMAX Mission To Mir 720p BRRip XviD NSJ

  • Download 5x Faster
  • Download torrent
  • Direct Download
  • Rate this torrent +  |  -
IMAX Mission To Mir 720p BRRip XviD NSJ

Anonymous and Free Direct Download 300GB+


Torrent info

Name:IMAX Mission To Mir 720p BRRip XviD NSJ

Total Size: 902.74 MB

Magnet: Magnet Link

Seeds: 0

Leechers: 1

Stream: Watch Online @ Movie4u

Last Updated: 2017-03-21 01:16:06 (Update Now)

Torrent added: 2009-09-01 14:59:43



VPN For Torrents

Torrent Files List


IMAX.Mission.To.Mir.720p.BRRip.XviD-NSJ.nfo (Size: 902.74 MB) (Files: 21)

 IMAX.Mission.To.Mir.720p.BRRip.XviD-NSJ.nfo

5.32 KB

 IMAX.Mission.To.Mir.720p.BRRip.XviD-NSJ.r00

47.70 MB

 IMAX.Mission.To.Mir.720p.BRRip.XviD-NSJ.r01

47.70 MB

 IMAX.Mission.To.Mir.720p.BRRip.XviD-NSJ.r02

47.70 MB

 IMAX.Mission.To.Mir.720p.BRRip.XviD-NSJ.r03

47.70 MB

 IMAX.Mission.To.Mir.720p.BRRip.XviD-NSJ.r04

47.70 MB

 IMAX.Mission.To.Mir.720p.BRRip.XviD-NSJ.r05

47.70 MB

 IMAX.Mission.To.Mir.720p.BRRip.XviD-NSJ.r06

47.70 MB

 IMAX.Mission.To.Mir.720p.BRRip.XviD-NSJ.r07

47.70 MB

 IMAX.Mission.To.Mir.720p.BRRip.XviD-NSJ.r08

47.70 MB

 IMAX.Mission.To.Mir.720p.BRRip.XviD-NSJ.r09

47.70 MB

 IMAX.Mission.To.Mir.720p.BRRip.XviD-NSJ.r10

47.70 MB

 IMAX.Mission.To.Mir.720p.BRRip.XviD-NSJ.r11

47.70 MB

 IMAX.Mission.To.Mir.720p.BRRip.XviD-NSJ.r12

47.70 MB

 IMAX.Mission.To.Mir.720p.BRRip.XviD-NSJ.r13

47.70 MB

 IMAX.Mission.To.Mir.720p.BRRip.XviD-NSJ.r14

47.70 MB

 IMAX.Mission.To.Mir.720p.BRRip.XviD-NSJ.r15

47.70 MB

 IMAX.Mission.To.Mir.720p.BRRip.XviD-NSJ.r16

47.70 MB

 IMAX.Mission.To.Mir.720p.BRRip.XviD-NSJ.r17

44.13 MB

 IMAX.Mission.To.Mir.720p.BRRip.XviD-NSJ.rar

47.70 MB

 IMAX.Mission.To.Mir.720p.BRRip.XviD-NSJ.sfv

1.00 KB
 

tracker

leech seeds
 

Torrent description

IMAX.Mission.To.Mir.720p.BRRip.XviD-NSJ

Format: AVI
Format/Info: Audio Video Interleave
File size: 899 MiB
Duration: 40mn 2s
Overall bit rate: 3 139 Kbps
Writing application: VirtualDubMod 1.5.10.2 (build 2540/release)
Writing library: VirtualDubMod build 2540/release

Video
Format: MPEG-4 Visual
Format profile: Streaming [email protected]
Format settings, BVOP: Yes
Format settings, QPel: No
Format settings, GMC: No warppoints
Format settings, Matrix: Default
Muxing mode: Packed bitstream
Codec ID: XVID
Codec ID/Hint: XviD
Duration: 40mn 2s
Bit rate: 2 489 Kbps
Width: 1 280 pixels
Height: 720 pixels
Display aspect ratio: 16/9
Frame rate: 23.976 fps
Resolution: 24 bits
Colorimetry: 4:2:0
Scan type: Progressive
Bits/(Pixel*Frame): 0.113
Stream size: 713 MiB (79%)
Writing library: XviD 1.2.1 (UTC 2008-12-04)

Audio
Format: AC-3
Format/Info: Audio Coding 3
Codec ID: 2000
Duration: 40mn 2s
Bit rate mode: Constant
Bit rate: 640 Kbps
Channel(s): 6 channels
Channel positions: Front: L C R, Surround: L R, LFE
Sampling rate: 48.0 KHz
Stream size: 183 MiB (20%)
Alignment: Split accross interleaves
Interleave, duration: 42 ms (1.00 video frame)
Interleave, preload duration: 500 ms
Posted by: NSJ (http://www.acetorrents.net/)

This file was made for http://www.acetorrents.net/ if you must upload to
another site please keep NFO intact. Thank You

Thanks to WazzaUK, Ace, phunkyboee, and Speedstick

related torrents

Torrent name

health leech seeds Size

IMAX Mission to Mir

1 3 744.99 MB 0
 


comments (0)

Main Menu