Documentary

IMAX Cosmic Voyage 720 BRRip XviD NSJ Ace HD net

  • Download 5x Faster
  • Download torrent
  • Direct Download
  • Rate this torrent +  |  -
IMAX Cosmic Voyage 720 BRRip XviD NSJ Ace HD net

Free and Direct Download with Usenet 300GB+ free


Torrent info

Name:IMAX Cosmic Voyage 720 BRRip XviD NSJ Ace HD net

Total Size: 941.04 MB

Magnet: Magnet Link

Seeds: 0

Leechers: 0

Stream: Watch Online @ Movie4u

Last Updated: 2015-09-11 02:15:21 (Update Now)

Torrent added: 2009-09-01 14:59:00




Torrent Files List


IMAX.Cosmic.Voyage.720.BRRip.XviD-NSJ.nfo (Size: 941.04 MB) (Files: 22)

 IMAX.Cosmic.Voyage.720.BRRip.XviD-NSJ.nfo

5.31 KB

 IMAX.Cosmic.Voyage.720.BRRip.XviD-NSJ.r00

47.70 MB

 IMAX.Cosmic.Voyage.720.BRRip.XviD-NSJ.r01

47.70 MB

 IMAX.Cosmic.Voyage.720.BRRip.XviD-NSJ.r02

47.70 MB

 IMAX.Cosmic.Voyage.720.BRRip.XviD-NSJ.r03

47.70 MB

 IMAX.Cosmic.Voyage.720.BRRip.XviD-NSJ.r04

47.70 MB

 IMAX.Cosmic.Voyage.720.BRRip.XviD-NSJ.r05

47.70 MB

 IMAX.Cosmic.Voyage.720.BRRip.XviD-NSJ.r06

47.70 MB

 IMAX.Cosmic.Voyage.720.BRRip.XviD-NSJ.r07

47.70 MB

 IMAX.Cosmic.Voyage.720.BRRip.XviD-NSJ.r08

47.70 MB

 IMAX.Cosmic.Voyage.720.BRRip.XviD-NSJ.r09

47.70 MB

 IMAX.Cosmic.Voyage.720.BRRip.XviD-NSJ.r10

47.70 MB

 IMAX.Cosmic.Voyage.720.BRRip.XviD-NSJ.r11

47.70 MB

 IMAX.Cosmic.Voyage.720.BRRip.XviD-NSJ.r12

47.70 MB

 IMAX.Cosmic.Voyage.720.BRRip.XviD-NSJ.r13

47.70 MB

 IMAX.Cosmic.Voyage.720.BRRip.XviD-NSJ.r14

47.70 MB

 IMAX.Cosmic.Voyage.720.BRRip.XviD-NSJ.r15

47.70 MB

 IMAX.Cosmic.Voyage.720.BRRip.XviD-NSJ.r16

47.70 MB

 IMAX.Cosmic.Voyage.720.BRRip.XviD-NSJ.r17

47.70 MB

 IMAX.Cosmic.Voyage.720.BRRip.XviD-NSJ.r18

34.73 MB

 IMAX.Cosmic.Voyage.720.BRRip.XviD-NSJ.rar

47.70 MB

 IMAX.Cosmic.Voyage.720.BRRip.XviD-NSJ.sfv

1.02 KB
 

tracker

leech seeds
 

Torrent description


IMAX.Cosmic.Voyage.720.BRRip.XviD-NSJ

Format: AVI
Format/Info: Audio Video Interleave
File size: 938 MiB
Duration: 36mn 9s
Overall bit rate: 3 627 Kbps
Writing application: VirtualDubMod 1.5.10.2 (build 2540/release)
Writing library: VirtualDubMod build 2540/release

Video
Format: MPEG-4 Visual
Format profile: Streaming [email protected]
Format settings, BVOP: Yes
Format settings, QPel: No
Format settings, GMC: No warppoints
Format settings, Matrix: Default
Muxing mode: Packed bitstream
Codec ID: XVID
Codec ID/Hint: XviD
Duration: 36mn 9s
Bit rate: 2 978 Kbps
Width: 1 280 pixels
Height: 720 pixels
Display aspect ratio: 16/9
Frame rate: 23.976 fps
Resolution: 24 bits
Colorimetry: 4:2:0
Scan type: Progressive
Bits/(Pixel*Frame): 0.135
Stream size: 770 MiB (82%)
Writing library: XviD 1.2.1 (UTC 2008-12-04)

Audio
Format: AC-3
Format/Info: Audio Coding 3
Codec ID: 2000
Duration: 36mn 9s
Bit rate mode: Constant
Bit rate: 640 Kbps
Channel(s): 6 channels
Channel positions: Front: L C R, Surround: L R, LFE
Sampling rate: 48.0 KHz
Stream size: 165 MiB (18%)
Alignment: Split accross interleaves
Interleave, duration: 42 ms (1.00 video frame)
Interleave, preload duration: 500 ms
Posted by: NSJ (http://www.acetorrents.net/)

This file was made for http://www.acetorrents.net/ if you must upload to
another site please keep NFO intact. Thank You

Thanks to WazzaUK, Ace, phunkyboee, and Speedstick

related torrents

Torrent name

health leech seeds Size
 

comments (0)

Main Menu