Documentary

IMAX Antarctica 720 BRRip XviD NSJ Ace HD net

  • Download 5x Faster
  • Download torrent
  • Direct Download
  • Rate this torrent +  |  -
IMAX Antarctica 720 BRRip XviD NSJ Ace HD net

Free and Direct Download with Usenet.nl 300GB+ free


Torrent info

Name:IMAX Antarctica 720 BRRip XviD NSJ Ace HD net

Total Size: 968.34 MB

Magnet: Magnet Link

Seeds: 0

Leechers: 0

Stream: Watch Online @ Movie4u

Last Updated: 2010-11-14 06:13:28 (Update Now)

Torrent added: 2009-09-01 14:58:34





Torrent Files List


IMAX.Antarctica.720.BRRip.XviD-NSJ.nfo (Size: 968.34 MB) (Files: 23)

 IMAX.Antarctica.720.BRRip.XviD-NSJ.nfo

5.31 KB

 IMAX.Antarctica.720.BRRip.XviD-NSJ.r00

47.70 MB

 IMAX.Antarctica.720.BRRip.XviD-NSJ.r01

47.70 MB

 IMAX.Antarctica.720.BRRip.XviD-NSJ.r02

47.70 MB

 IMAX.Antarctica.720.BRRip.XviD-NSJ.r03

47.70 MB

 IMAX.Antarctica.720.BRRip.XviD-NSJ.r04

47.70 MB

 IMAX.Antarctica.720.BRRip.XviD-NSJ.r05

47.70 MB

 IMAX.Antarctica.720.BRRip.XviD-NSJ.r06

47.70 MB

 IMAX.Antarctica.720.BRRip.XviD-NSJ.r07

47.70 MB

 IMAX.Antarctica.720.BRRip.XviD-NSJ.r08

47.70 MB

 IMAX.Antarctica.720.BRRip.XviD-NSJ.r09

47.70 MB

 IMAX.Antarctica.720.BRRip.XviD-NSJ.r10

47.70 MB

 IMAX.Antarctica.720.BRRip.XviD-NSJ.r11

47.70 MB

 IMAX.Antarctica.720.BRRip.XviD-NSJ.r12

47.70 MB

 IMAX.Antarctica.720.BRRip.XviD-NSJ.r13

47.70 MB

 IMAX.Antarctica.720.BRRip.XviD-NSJ.r14

47.70 MB

 IMAX.Antarctica.720.BRRip.XviD-NSJ.r15

47.70 MB

 IMAX.Antarctica.720.BRRip.XviD-NSJ.r16

47.70 MB

 IMAX.Antarctica.720.BRRip.XviD-NSJ.r17

47.70 MB

 IMAX.Antarctica.720.BRRip.XviD-NSJ.r18

47.70 MB

 IMAX.Antarctica.720.BRRip.XviD-NSJ.r19

14.34 MB

 IMAX.Antarctica.720.BRRip.XviD-NSJ.rar

47.70 MB

 IMAX.Antarctica.720.BRRip.XviD-NSJ.sfv

1.00 KB
 

Announce URL: http://www.ace-hd.net/announce.php

Torrent description

IMAX.Antarctica.720.BRRip.XviD-NSJ

Format: AVI
Format/Info: Audio Video Interleave
File size: 966 MiB
Duration: 39mn 9s
Overall bit rate: 3 449 Kbps
Writing application: VirtualDubMod 1.5.10.2 (build 2540/release)
Writing library: VirtualDubMod build 2540/release

Video
Format: MPEG-4 Visual
Format profile: Streaming [email protected]
Format settings, BVOP: Yes
Format settings, QPel: No
Format settings, GMC: No warppoints
Format settings, Matrix: Default
Muxing mode: Packed bitstream
Codec ID: XVID
Codec ID/Hint: XviD
Duration: 39mn 9s
Bit rate: 2 992 Kbps
Width: 1 280 pixels
Height: 720 pixels
Display aspect ratio: 16/9
Frame rate: 24.000 fps
Resolution: 24 bits
Colorimetry: 4:2:0
Scan type: Progressive
Bits/(Pixel*Frame): 0.135
Stream size: 838 MiB (87%)
Writing library: XviD 1.2.1 (UTC 2008-12-04)

Audio
Format: AC-3
Format/Info: Audio Coding 3
Codec ID: 2000
Duration: 39mn 9s
Bit rate mode: Constant
Bit rate: 448 Kbps
Channel(s): 6 channels
Channel positions: Front: L C R, Surround: L R, LFE
Sampling rate: 48.0 KHz
Stream size: 125 MiB (13%)
Alignment: Split accross interleaves
Interleave, duration: 42 ms (1.00 video frame)
Interleave, preload duration: 500 ms

related torrents

Torrent name

health leech seeds Size
 

comments (0)

Main Menu