Documentary

IMAX Roving Mars (BDRIP 720p)

  • Download 5x Faster
  • Download torrent
  • Direct Download
  • Rate this torrent +  |  -
IMAX Roving Mars (BDRIP 720p)

Free and Direct Download with Usenet.nl 300GB+ free


Torrent info

Name:IMAX Roving Mars (BDRIP 720p)

Total Size: 2.18 GB

Magnet: Magnet Link

Seeds: 0

Leechers: 0

Stream: Watch Online @ Movie4u

Last Updated: 2010-07-01 23:17:50 (Update Now)

Torrent added: 2009-09-01 14:57:41





Torrent Files List


IMAX - Roving Mars (BDRIP) 720p - AC3.avi (Size: 2.18 GB) (Files: 4)

 IMAX - Roving Mars (BDRIP) 720p - AC3.avi

2.18 GB

 IMAX - Roving Mars (BDRIP) 720p - AC3.srt

38.27 KB

 IMAX - Roving Mars (BDRIP) 720p - AC3.txt

2.15 KB

 IMAX - Roving Mars.jpg

200.46 KB
 

Announce URL: http://open.tracker.thepiratebay.org/announce

Torrent description

TECHNICAL SPECS :


General:

Complete name : IMAX - Roving Mars (BDRIP - 720p)\IMAX - Roving Mars (BDRIP) 720p - AC3.avi
Format : AVI
Format/Info : Audio Video Interleave
Format profile : OpenDML
File size : 2.18 GiB
Duration : 39mn 56s
Overall bit rate : 7 828 Kbps
Writing application : VirtualDubMod 1.5.10.2 (build 2540/release)
Writing library : VirtualDubMod build 2540/release

Video:
Format : MPEG-4 Visual
Codec ID : DX50
Codec ID/Hint : DivX 5
Duration : 39mn 56s
Bit rate : 6 306 Kbps
Width : 1 280 pixels
Height : 720 pixels
Display aspect ratio : 16/9
Frame rate : 23.976 fps
Resolution : 24 bits
Colorimetry : 4:2:0
Scan type : Progressive
Bits/(Pixel*Frame) : 0.285
Stream size : 1.76 GiB (81%)
Writing library : DivX 6.6.1

Audio :
Format : DTS
Duration : 39mn 56s
Bit rate mode : Constant
Bit rate : 1 536 Kbps
Channel(s) : 6 channels
Channel positions : Front: L C R, Surround: L R, LFE
Sampling rate : 48.0 KHz
Resolution : 24 bits
Stream size : 431 MiB (19%)
Alignment : Split accross interleaves
Interleave, duration : 42 ms (1.00 video frame)
Interleave, preload duration : 491 ms

SCREENSHOTS:

http://www.imagebam.com/image/d3044224287100

related torrents

Torrent name

health leech seeds Size
 

comments (0)

Main Menu