Documentary

IFC Media Project Episodes 5 & 6 [snach] [h33t]

  • Download 5x Faster
  • Download torrent
  • Direct Download
  • Rate this torrent +  |  -
IFC Media Project Episodes 5 & 6 [snach] [h33t]

Free and Direct Download with Usenet.nl 300GB+ free


Torrent info

Name:IFC Media Project Episodes 5 & 6 [snach] [h33t]

Total Size: 489.11 MB

Magnet: Magnet Link

Seeds: 0

Leechers: 0

Stream: Watch Online @ Movie4u

Last Updated: 2010-03-05 15:20:41 (Update Now)

Torrent added: 2009-09-01 14:49:15





Torrent Files List


IFC.Media.Project.Episode.05.700x388.xvid.mp3-snach.avi (Size: 489.11 MB) (Files: 6)

 IFC.Media.Project.Episode.05.700x388.xvid.mp3-snach.avi

242.34 MB

 IFC.Media.Project.Episode.06.700x388.xvid.mp3-snach.avi.avi

246.76 MB

 INFO.txt

7.86 KB

 logo_ifc_media_project_with_gideon_yago.gif

6.64 KB

 Torrent downloaded from Demonoid.com.txt

0.05 KB

 tracked_by_h33t_com.txt

0.02 KB
 

Announce URL: http://tracker.thepiratebay.org/announce

Torrent description

--These are my own TV captures of this show--

IFC - The IFC Media Project (2008)


Program Info
This new IFC (Independent Film Channel) original series, produced by Meghan O'Hara (FAHRENHEIT 911 and SICKO) and Nick McKinney (The Daily Show and Morgan Spurlock's "30 Days"), reveals the truth behind the news. The thought-provoking series examines the current state of investigative journalism and how it affects our perceptions of the world around us.

1. Episode Five - The Anatomy of a Story:
This Premiered Tuesday, December 16

Journalists, even the bad ones, are storytellers. The news is an ongoing soap opera and the best stories are the one's that go beyond what we already know. This episode looks at how journalists put these stories together.

Carmen + El Diaro La Prensa (4min)
Carmen, a Colombian immigrant to the US, is a reporter for El Diaro La Prensa, the nation's largest latino newspaper. While the rest of the newspaper industry is imploding, El Diaro La Prensa's circulation and ad revenue is exploding. We explore this phenomenon by joining Carmen on the road as she travels through the American heartland covering different stories of America's struggle to deal with its melting pot mentality.

Media Encyclopedia: Breaking News (2min)
Another entry in our Media Encyclopedia, the handbook to the tricks and tropes of the journalistic trade.

The War on Drugs (10min)
Pot. Weed. Reefer. It's the dangerous drug that leads to even more dangerous drugs and if you smoke it you'll amount to nothing and quite possibly end up dead. Or so goes the story. And it's a story that's enjoyed amazing staying power – even though huge numbers of Americans have smoked it and lived to tell the tale. Fed by the US government and nearly unquestioned by the mainstream media, the anatomy of this story is hilarious.

News Junkie: TBD (2min)
Our viral animated and news addled Junkie checks in with the latest installment of his hilarious paranoid rantings.

Interview: Alex Gibney (4min)
Director of the documentary, Taxi To The Dark Side

2. Episode Six - The Future of News:
This Premiered Tuesday, December 23

This episode will involve a media stunt that dares to predict a Utopian newspaper of tomorrow; we take a look at issues surrounding the news and information of the future; another installment of "The Media Encyclopedia"; an animated "News Junkie"; and a feature interview with Arianna Huffington.

THE YES MEN (4min)
Watch what happens when hundreds of independent writers, artists, and activists - including the Anti-Advertising Agency, CODEPINK, May First/People Link, Evil Twin, Improv Everywhere and Not An Alternative - join forces with media provocateurs The Yes Men for their most elaborate stunt to date.

Media Encyclopedia: Local News (2min)
Another entry in our Media Encyclopedia, the handbook to the tricks and tropes of the journalistic trade. This week - "Local News".

THE FUTURE OF NEWS (10min)
In this feature segment we look at where the news heading in the age of ubiquitous media. How can we adapt to the changing face of news and, more importantly, how can news organizations adapt to new mediums, new expectations and new delivery systems? The future's so bright we gotta wear... goggles?

News Junkie: TBD (2min)
See what our resident News Junkie foresees for the media world of 2058.

Interview - Arianna Huffington (4min)
We sit down with the founder of the Huffington Post to discuss the present and future face of online news.

Site: http://www.ifc.com/on-ifc/mediaproject/
Test your Media IQ: http://www.ifc.com/on-ifc/mediaproject/quiz


Video Info
IFC.Media.Project.Episode.05.700x388.xvid.mp3-snach.avi

Format : AVI
Format/Info : Audio Video Interleave
File size : 242 MiB
Duration : 25mn 40s
Overall bit rate : 1 320 Kbps
Writing application : MediaCoder 0.6

Video
Format : MPEG-4 Visual
Format profile : Streaming [email protected]
Format settings, BVOP : No
Format settings, QPel : No
Format settings, GMC : 3 warppoints
Format settings, Matrix : Default
Codec ID : XVID
Codec ID/Hint : XviD
Duration : 25mn 40s
Bit rate : 1 194 Kbps
Width : 700 pixels
Height : 388 pixels
Display aspect ratio : 1.606
Frame rate : 29.970 fps
Resolution : 24 bits
Colorimetry : 4:2:0
Scan type : Progressive
Bits/(Pixel*Frame) : 0.147
Stream size : 219 MiB (90%)
Writing library : XviD 1.2.0.dev47 (UTC 2006-11-01)

Audio
Format : MPEG Audio
Format version : Version 1
Format profile : Layer 3
Codec ID : 55
Codec ID/Hint : MP3
Duration : 25mn 40s
Bit rate mode : Constant
Bit rate : 112 Kbps
Channel(s) : 2 channels
Sampling rate : 48.0 KHz
Resolution : 16 bits
Stream size : 20.6 MiB (8%)
Alignment : Aligned on interleaves
Interleave, duration : 24 ms (0.72 video frame)
Interleave, preload duration : 504 ms

IFC.Media.Project.Episode.06.700x388.xvid.mp3-snach.avi

Format : AVI
Format/Info : Audio Video Interleave
File size : 247 MiB
Duration : 26mn 9s
Overall bit rate : 1 319 Kbps
Writing application : MediaCoder 0.6

Video
Format : MPEG-4 Visual
Format profile : Streaming [email protected]
Format settings, BVOP : No
Format settings, QPel : No
Format settings, GMC : 3 warppoints
Format settings, Matrix : Default
Codec ID : XVID
Codec ID/Hint : XviD
Duration : 26mn 9s
Bit rate : 1 193 Kbps
Width : 700 pixels
Height : 388 pixels
Display aspect ratio : 1.606
Frame rate : 29.970 fps
Resolution : 24 bits
Colorimetry : 4:2:0
Scan type : Progressive
Bits/(Pixel*Frame) : 0.147
Stream size : 223 MiB (90%)
Writing library : XviD 1.2.0.dev47 (UTC 2006-11-01)

Audio
Format : MPEG Audio
Format version : Version 1
Format profile : Layer 3
Codec ID : 55
Codec ID/Hint : MP3
Duration : 26mn 9s
Bit rate mode : Constant
Bit rate : 112 Kbps
Channel(s) : 2 channels
Sampling rate : 48.0 KHz
Resolution : 16 bits
Stream size : 21.0 MiB (8%)
Alignment : Aligned on interleaves
Interleave, duration : 24 ms (0.72 video frame)
Interleave, preload duration : 504 ms


Trackers(for you to add):
http://tracker.conspiracycentral.net/announce
http://tracker.thepiratebay.org:80/announce
http://denis.stalker.h3q.com:6969/announce
http://open.tracker.thepiratebay.org/announce
http://torrent-downloads.to:5869/announce
http://www.h33t.com:3310/announce
http://inferno.demonoid.com:3404/announce

Visit & Join us at:
http://tracker.ConspiracyCentral.net

Enjoy & Seed!

related torrents

Torrent name

health leech seeds Size
 

comments (0)

Main Menu