Documentary

Home[2009][Eng]XviD ovd

  • Download 5x Faster
  • Download torrent
  • Direct Download
  • Rate this torrent +  |  -
Home[2009][Eng]XviD ovd

Anonymous and Free Direct Download


Torrent info

Name:Home[2009][Eng]XviD ovd

Total Size: 699.79 MB

Magnet: Magnet Link

Seeds: 0

Leechers: 0

Stream: Watch Online @ Movie4u

Last Updated: 0000-00-00 00:00:00 (Update Now)

Torrent added: 2009-09-01 14:36:43



VPN For Torrents

Torrent Files List


Home[2009][Eng]XviD-ovd.avi (Size: 699.79 MB) (Files: 1)

 Home[2009][Eng]XviD-ovd.avi

699.79 MB
 

Announce URL:

Torrent description

"HOME" - a documentary film by Yann Arthus-Bertrand

***

"We are living in exceptional times. Scientists tell us that we have 10 years to change the way we live, avert the depletion of natural resources and the catastrophic evolution of the Earth's climate.

The stakes are high for us and our children. Everyone should take part in the effort, and HOME has been conceived to take a message of mobilization out to every human being."

***

Download and share!


***

General
Format : AVI
Format/Info : Audio Video Interleave
File size : 700 MiB
Duration : 1h 33mn
Overall bit rate : 1 049 Kbps
Writing application : VirtualDubMod 1.5.4.1 (build 2178/release)
Writing library : VirtualDubMod build 2178/release

Video
Format : MPEG-4 Visual
Format profile : Streaming [email protected]
Format settings, BVOP : Yes
Format settings, QPel : No
Format settings, GMC : No warppoints
Format settings, Matrix : Custom
Codec ID : XVID
Codec ID/Hint : XviD
Duration : 1h 33mn
Bit rate : 850 Kbps
Width : 640 pixels
Height : 368 pixels
Display aspect ratio : 16/9
Frame rate : 23.976 fps
Resolution : 24 bits
Colorimetry : 4:2:0
Scan type : Progressive
Bits/(Pixel*Frame) : 0.150
Stream size : 567 MiB (81%)
Writing library : XviD 1.2.0.dev47 (UTC 2006-11-01)

Audio
Format : MPEG Audio
Format version : Version 1
Format profile : Layer 3
Codec ID : 55
Codec ID/Hint : MP3
Duration : 1h 33mn
Bit rate mode : Constant
Bit rate : 192 Kbps
Channel(s) : 2 channels
Sampling rate : 44.1 KHz
Resolution : 16 bits
Stream size : 128 MiB (18%)
Alignment : Split accross interleaves
Interleave, duration : 83 ms (2.00 video frames)
Interleave, preload duration : 500 ms
Writing library : LAME3.98.2

related torrents

Torrent name

health leech seeds Size

Home[2009][Eng]XviD progh

0 0 699.79 MB 0
 


comments (0)

Main Menu