UK

West Country Tales S02E04 Ring a Ring a Rosy (9th June 1983) [UN (Xvid)]

  • Download 5x Faster
  • Download torrent
  • Direct Download
  • Rate this torrent +  |  -

Torrent info

Name:West Country Tales S02E04 Ring a Ring a Rosy (9th June 1983) [UN (Xvid)]

Total Size: 369.04 MB

Magnet: Magnet Link

Seeds: 0

Leechers: 0

Stream: Watch Online @ Movie4u

Last Updated: 2015-05-22 23:01:49 (Update Now)

Torrent added: 2009-09-01 14:34:40



VPN For Torrents

Torrent Files List


Ring a Ring a Rosy.avi (Size: 369.04 MB) (Files: 1)

 Ring a Ring a Rosy.avi

369.04 MB
 

tracker

leech seeds
 

Torrent description

This torrent was uploaded from www.TheBox.bz (signup is open and free) - the home of all British TV

West Country Tales   S02E04   Ring a Ring a Rosy (9th June 1983) [UN (Xvid)] preview 0

WEST COUNTRY TALES


Ring a Ring a Rosy


Synopsis
When her husband dies, a young woman takes her daughter to a remote house, planning to keep her from the bad things in the world. Then a stranger arrives... (EOFFTV).


Cast
Ellen - Nanette Newman
Rosy - Tamar Le Bailey
Paul - Jamie Barron


Crew
Writer: Josephine Poole (Based on a contribution by Dorothy Walker)
Producer/Director: John King


Information
West Country Tales was an early 1980s supernatural drama series based on real-life (Hmmmm....) experiences submitted by viewers in response to a BBC appeal. Of the hundreds of letters received, 13 stories were selected and turned into TV scripts.


West Country Tales   S02E04   Ring a Ring a Rosy (9th June 1983) [UN (Xvid)] preview 1



Technical Gibberish
Complete name: C:\West Country Tales\Ring a Ring a Rosy.avi
Format: AVI
Format/Info: Audio Video Interleave
File size: 369 MiB
Duration: 30mn 15s
Overall bit rate: 1706 Kbps
Writing library: VirtualDub build 30009/release


Video
Format: MPEG-4 Visual
Format profile: Streaming [email protected]
Format settings, BVOP: No
Format settings, QPel: No
Format settings, GMC: No warppoints
Format settings, Matrix: Default
Codec ID: XVID
Codec ID/Hint: XviD
Duration: 30mn 15s
Bit rate: 1504 Kbps
Width: 768 pixels
Height: 576 pixels
Display aspect ratio: 4/3
Frame rate: 25.000 fps
Resolution: 8 bits
Colorimetry: 4:2:0
Scan type: Progressive
Bits/(Pixel*Frame): 0.136
Stream size: 325 MiB (88%)
Writing library: XviD 1.1.2 (UTC 2006-11-01)


Audio
Format: MPEG Audio
Format version: Version 1
Format profile: Layer 3
Codec ID: 55
Codec ID/Hint: MP3
Duration: 30mn 15s
Bit rate mode: Constant
Bit rate: 192 Kbps
Channel(s): 2 channels
Sampling rate: 44.1 KHz
Resolution: 16 bits
Video delay: 14ms
Stream size: 41.5 MiB (11%)
Alignment: Split accross interleaves
Interleave, duration: 40 ms (1.00 video frame)
Interleave, preload duration: 500 ms



Personal
I just like to thank everybody for their kind words and encouragement. Thanks also for downloading. I'm glad you all seem to have enjoyed them.

Sadly, despite my appeal, no one seems to have, or has come forward with any of the other six episodes. But where there's Beta, VHS, and V2000 there is hope....


West Country Tales   S02E04   Ring a Ring a Rosy (9th June 1983) [UN (Xvid)] preview 2


T-T-THAT'S ALL FOLKS!




===============================

Some of the other rather spiffing shows available now and always if you signup free @ www.TheBox.bz:

Comedy: The Office, Peep Show, Coupling, Chef, Fawlty Towers, Only Fools and Horses, The IT Crowd, Brass Eye, Nathan Barley, Young Ones, Monty Python, Blackadder, Alan Partridge, Father Ted, Coupling, Little Britain, Mr Bean, Extras, Green Wing, Mighty Boosh

Drama: Casualty, Holby City, The Bill, Hustle, Skins, Shameless, Ashes To Ashes

Entertainment: Faking It, Derren Brown, Scrapheap Challenge, Strictly Come Dancing, Wife Swap

Game/Quiz Shows: Whose Line Is It Anyway?, Have I Got News For You, Deal Or No Deal (UK), Q.I.

Education/Documentary: Planet Earth, Horizon, Panorama, Mark Thomas (Comedy) Product

Food: Hell's Kitchen, Jamie Oliver, The F Word, Kitchen Nightmares, Masterchef, Great British Menu, Gordon Ramsay's Cookalong

Home/Property/Garden: Property Ladder, How Clean Is Your House?, Changing Rooms, Grand Designs, Homes Under The Hammer, To Buy Or Not To Buy

Motoring: Top Gear, Fifth Gear

Music: Top Of The Pops, Jools Holland, Glastonbury

Reality: Big Brother, Celebrity Big Brother, I'm a Celebrity - Get Me Out of Here!, Any Dream Will Do, Grease, Pop Idol, Wife Swap, X Factor, Badger Or Bust, Apprentice UK, Dragons' Den, Britain's Got Talent

Sci-Fi: Doctor Who, Red Dwarf, Torchwood, Primeval

Sport: Football (Soccer), Cricket, Rugby, Snooker, Darts, Formula One (F1GP)

Soaps: Eastenders, Coronation Street, Emmerdale, Neighbours, Hollyoaks

Style/Fashion: What Not To Wear, Project Catwalk

Kids: Teletubbies, Blue Peter, Tikkabilla, Andy Pandy, Postman Pat, Shoebox Zoo, Brum, Bob The Builder, Young Dracula, Sarah Jane Adventures, Shaun The Sheep

related torrents

Torrent name

health leech seeds Size
 


comments (0)

Main Menu