Documentary

HITLER the rise of evil Part 2 (of 2) Subs FIN SWE DK NO

  • Download 5x Faster
  • Download torrent
  • Direct Download
  • Rate this torrent +  |  -
HITLER the rise of evil Part 2 (of 2) Subs FIN SWE DK NO

Free and Direct Download with Usenet 300GB+ free


Torrent info

Name:HITLER the rise of evil Part 2 (of 2) Subs FIN SWE DK NO

Total Size: 700.20 MB

Magnet: Magnet Link

Seeds: 0

Leechers: 0

Stream: Watch Online @ Movie4u

Last Updated: 2017-01-02 17:39:32 (Update Now)

Torrent added: 2009-09-01 14:27:55




Torrent Files List


HITLER the rise of evil.jpg (Size: 700.20 MB) (Files: 4)

 HITLER the rise of evil.jpg

76.09 KB

 HITLER_the rise of evil_2.avi

697.10 MB

 HITLER_the rise of evil_2.idx

146.17 KB

 HITLER_the rise of evil_2.rar

2.89 MB
 

tracker

leech seeds
 

Torrent description

Xvid conversion with AutoGk (sharp-matrix) - Quality is very Good (read more below)
----------------------------------------------------------------------------------

Hitler: The Rise of Evil (2003) Part 2 of 2

Part 1 is available here - do a search

Movie: Hitler: The Rise of Evil (2003) 7 EMMY NOMINATIONS !!

http://www.imdb.com/title/tt0346293/
User Rating: 7.2/10 5,242 votes
Genre: Biography | Drama | History
Video Part1: XviD 963 KB/s 608 x 352 @25fps 16:9 full widescreen
Audio: English MPEG-1 Layer 3 (MP3) 128 KB/s (VBR)
Source: DVD PAL
Part 2 Duration: 1 hour 29 minutes
Language: English
Subtitles: Finnish, Swedish, Danish, Norwegian


Plot
The movie describes the life of Adolf Hitler from
childhood to manhood, and how he became so powerful.
It describes his poor childhood in Austria, it
describes the first world war from a german point of view,
and how he became the strongest man in Germany and the
whole world.
The movie shows us what turned Hitler from a poor
soldier into the leader of the Nazis and explains why
the jews became the main enemy. It describes his
relationship with his mistress Eva Braun, and his
decisions and enemies inside Germany, his extraordinary
personality and how he rises to power the democratic way
through elections.
-----------------------------------------------------------------------------------

Subtitles best watched with this superb freeware player:
http://www.mpcstar.com/

Subtitles: YES in 4 LANGUAGES !!! - Read Below:

------------------------------------------------------------------------------------
With MPC Star-player you don't have to do any preparations - just start this movie

and right-click on the picture and you will see Choose File Subtitle - there you

can choose from any of the 4 Languages !!
------------------------------------------------------------------------------------

With VLC-player you must first extract the rar-archive and only then you will have

all the subs to choose from.
-------------------------------------------------------------------------------------

SUOMEKSI: Tässä erittäin onnistunut kuvaus Adolf Hitlerin ja Natsi-puolueen

noususta todella vaatimattomasta alusta Euroopan ja koko maailman mahtavimmaksi

voimaksi. Kuinka he pääsivät ehdottomaan valtaan itse asiassa kansan tuella eikä

millään vallan anastuksella. Erittäin hyvä filmatisointi. Kannattaa ehdottomasti

katsoa. Hitleriä näytellyt kaveri on hyvä - joskaan kukaan näyttelijä ei

tietenkään voi olla hän, hänen persoonansa, karismansa, sen oikeasti kokeneet

voivat vain tuntea sen aidon Fuhrerin kokonaisuudessaan ja kuinka he halusivat

seurata - palvoa - totella häntä vaikka hamaan kuolemaan asti.

-----------------------------------------------------------------------------------

Tekstit suomeksi - toimii PC ei TV (elokuva näkyy telkassa mutta ei tekstit).

Tekstit näkyy siis heti MPC Star-playerillä, mutta VLC-playerillä on pakko

ensin purkaa tuo .rar tiedosto - sitten näkyy siinäkin !!

-----------------------------------------------------------------------------------

Format : AVI
Format/Info : Audio Video Interleave
File size : 697 MiB
Duration : 1h 29mn
Overall bit rate : 1 089 Kbps
Writing application : VirtualDubMod 1.5.4.1 (build 2178/release)
Writing library : VirtualDubMod build 2178/release

Video
Format : MPEG-4 Visual
Format profile : Streaming [email protected]
Format settings, BVOP : Yes
Format settings, QPel : No
Format settings, GMC : No warppoints
Format settings, Matrix : Default
Muxing mode : Packed bitstream
Codec ID : XVID
Codec ID/Hint : XviD
Duration : 1h 29mn
Bit rate : 963 Kbps
Width : 608 pixels
Height : 352 pixels
Display aspect ratio : 16/9
Frame rate : 25.000 fps
Resolution : 24 bits
Colorimetry : 4:2:0
Scan type : Progressive
Bits/(Pixel*Frame) : 0.180
Stream size : 617 MiB (88%)
Writing library : XviD 1.2.1 (UTC 2008-12-04)

Audio
Format : MPEG Audio
Format version : Version 1
Format profile : Layer 3
Codec ID : 55
Codec ID/Hint : MP3
Duration : 1h 29mn
Bit rate mode : Variable
Bit rate : 113 Kbps
Minimum bit rate : 128 Kbps
Channel(s) : 2 channels
Sampling rate : 48.0 KHz
Resolution : 16 bits
Stream size : 72.2 MiB (10%)
Alignment : Aligned on interleaves
Interleave, duration : 24 ms (0.60 video frame)
Interleave, preload duration : 721 ms
Writing library : LAME3.98r
Encoding settings : ABR
Language : English

related torrents

Torrent name

health leech seeds Size
 

comments (0)

Main Menu