UK

The Gaffer Series 1 (1981) [DVDRip (XviD)]

  • Download 5x Faster
  • Download torrent
  • Direct Download
  • Rate this torrent +  |  -
The Gaffer Series 1 (1981) [DVDRip (XviD)]

Anonymous and Free Direct Download 300GB+


Torrent info

Name:The Gaffer Series 1 (1981) [DVDRip (XviD)]

Total Size: 1.37 GB

Magnet: Magnet Link

Seeds: 0

Leechers: 0

Stream: Watch Online @ Movie4u

Last Updated: 2016-12-12 05:59:54 (Update Now)

Torrent added: 2009-09-01 14:23:59



VPN For Torrents

Torrent Files List


The Gaffer S01E03 - Albert.avi (Size: 1.37 GB) (Files: 6)

 The Gaffer S01E03 - Albert.avi

233.01 MB

 The Gaffer S01E05 - The Trouble with Women.avi

233.00 MB

 The Gaffer S01E01 - All in a Day's Strike.avi

233.00 MB

 The Gaffer S01E02 - A Seat on the Board.avi

232.99 MB

 The Gaffer S01E06 - England Exports.avi

232.99 MB

 The Gaffer S01E04 - Dear Old Pals.avi

232.97 MB
 

tracker

leech seeds
 

Torrent description

This torrent was uploaded from www.TheBox.bz (signup is open and free) - the home of all British TV

Fred Moffatt, 'The Gaffer', is the director of a recession-hit, light-engineering company and is always teetering on the edge of disaster. He is a friendly man who is constantly trying to keep his head above water and extracting money from his clients. His efforts to control his workforce are thwarted by his shop steward, Harry, who is well versed in downing tools and asking for pay rises. Whilst his secretary, Betty, is the buffer between the warring factions and wise to all their games.


The Gaffer   Series 1 (1981) [DVDRip (XviD)] preview 0


Regular Cast
Bill Maynard ... Fred Moffat
Russell Hunter ... Harry
Pat Ashton ... Betty
David Gillies ... Ginger
Don Crann ... Charlie
Alan Hockey ... Joe Gregory (Series 3)
Writing Team
Graham White ... Writer
Production Team
Alan Tarrant ... Director
Alan Tarrant ... Producer
Tony Jones ... Production Design



Episode 1.1 - All in a Day's Strike

It's just another day for Fred Moffat, long suffering managing director of his own light-engineering company, when Harry, the shop steward, threatens to down tools ...

First Broadcast Details
Date:Fri 9th January 1981


General
Complete name : The Gaffer - 1981\The Gaffer 1.avi
Format : AVI
Format/Info : Audio Video Interleave
File size : 233 MiB
Duration : 25mn 30s
Overall bit rate : 1 277 Kbps
Writing application : VirtualDubMod 1.5.4.1 (build 2178/release)
Writing library : VirtualDubMod build 2178/release

Video
ID : 0
Format : MPEG-4 Visual
Format profile : [email protected]
Format settings, BVOP : Yes
Format settings, QPel : No
Format settings, GMC : No warppoints
Format settings, Matrix : Custom
Codec ID : XVID
Codec ID/Hint : XviD
Duration : 25mn 30s
Bit rate : 1 162 Kbps
Width : 528 pixels
Height : 400 pixels
Display aspect ratio : 4:3
Frame rate : 25.000 fps
Resolution : 24 bits
Colorimetry : 4:2:0
Scan type : Progressive
Bits/(Pixel*Frame) : 0.220
Stream size : 212 MiB (91%)
Writing library : XviD 1.2.1 (UTC 2008-12-04)

Audio
ID : 1
Format : MPEG Audio
Format version : Version 1
Format profile : Layer 3
Codec ID : 55
Codec ID/Hint : MP3
Duration : 25mn 30s
Bit rate mode : Variable
Bit rate : 102 Kbps
Nominal bit rate : 128 Kbps
Channel(s) : 2 channels
Sampling rate : 48.0 KHz
Resolution : 16 bits
Stream size : 18.7 MiB (8%)
Alignment : Aligned on interleaves
Interleave, duration : 24 ms (0.60 video frame)
Interleave, preload duration : 547 ms
Writing library : LAME3.98r
Encoding settings : -m j -V 4 -q 2 -lowpass 17 --abr 128



--------------------------------------------------------------------
2. A Seat on the Board
First Broadcast: Fri 16th January 1981
Harry, the shop steward, is at it again - this time he has out-manoeuvred and outgunned Fred to the extent that he is now on strike outside of his own factory ...


General
Complete name : The Gaffer - 1981\The Gaffer 2.avi
Format : AVI
Format/Info : Audio Video Interleave
File size : 233 MiB
Duration : 24mn 56s
Overall bit rate : 1 306 Kbps
Writing application : VirtualDubMod 1.5.4.1 (build 2178/release)
Writing library : VirtualDubMod build 2178/release

Video
ID : 0
Format : MPEG-4 Visual
Format profile : [email protected]
Format settings, BVOP : Yes
Format settings, QPel : No
Format settings, GMC : No warppoints
Format settings, Matrix : Custom
Codec ID : XVID
Codec ID/Hint : XviD
Duration : 24mn 56s
Bit rate : 1 190 Kbps
Width : 528 pixels
Height : 400 pixels
Display aspect ratio : 4:3
Frame rate : 25.000 fps
Resolution : 24 bits
Colorimetry : 4:2:0
Scan type : Progressive
Bits/(Pixel*Frame) : 0.225
Stream size : 212 MiB (91%)
Writing library : XviD 1.2.1 (UTC 2008-12-04)

Audio
ID : 1
Format : MPEG Audio
Format version : Version 1
Format profile : Layer 3
Codec ID : 55
Codec ID/Hint : MP3
Duration : 24mn 56s
Bit rate mode : Variable
Bit rate : 103 Kbps
Nominal bit rate : 128 Kbps
Channel(s) : 2 channels
Sampling rate : 48.0 KHz
Resolution : 16 bits
Stream size : 18.5 MiB (8%)
Alignment : Aligned on interleaves
Interleave, duration : 24 ms (0.60 video frame)
Interleave, preload duration : 530 ms
Writing library : LAME3.98r
Encoding settings : -m j -V 4 -q 2 -lowpass 17 --abr 128

---------------------------------------------------------------------
3. Albert
First Broadcast: Fri 30th January 1981
Betty has managed to get her cousin Albert a job in the factory and it's not too long before he is causing mayhem. It seems that a lot of ingenuity will be required to help him find the exit door ...


General
Complete name : The Gaffer - 1981\The Gaffer 3.avi
Format : AVI
Format/Info : Audio Video Interleave
File size : 233 MiB
Duration : 23mn 42s
Overall bit rate : 1 374 Kbps
Writing application : VirtualDubMod 1.5.4.1 (build 2178/release)
Writing library : VirtualDubMod build 2178/release

Video
ID : 0
Format : MPEG-4 Visual
Format profile : [email protected]
Format settings, BVOP : Yes
Format settings, QPel : No
Format settings, GMC : No warppoints
Format settings, Matrix : Custom
Codec ID : XVID
Codec ID/Hint : XviD
Duration : 23mn 42s
Bit rate : 1 256 Kbps
Width : 560 pixels
Height : 416 pixels
Display aspect ratio : 4:3
Frame rate : 25.000 fps
Resolution : 24 bits
Colorimetry : 4:2:0
Scan type : Progressive
Bits/(Pixel*Frame) : 0.216
Stream size : 213 MiB (91%)
Writing library : XviD 1.2.1 (UTC 2008-12-04)

Audio
ID : 1
Format : MPEG Audio
Format version : Version 1
Format profile : Layer 3
Codec ID : 55
Codec ID/Hint : MP3
Duration : 23mn 42s
Bit rate mode : Variable
Bit rate : 105 Kbps
Nominal bit rate : 128 Kbps
Channel(s) : 2 channels
Sampling rate : 48.0 KHz
Resolution : 16 bits
Stream size : 17.8 MiB (8%)
Alignment : Aligned on interleaves
Interleave, duration : 24 ms (0.60 video frame)
Interleave, preload duration : 266 ms
Writing library : LAME3.98r
Encoding settings : -m j -V 4 -q 2 -lowpass 17 --abr 128

---------------------------------------------------------------------
4. Dear Old Pals
First Broadcast: Fri 6th February 1981
A new employee starts at the factory and he is an ex-army friend of Fred's. But his army methods are not popular on the factory floor ...


General
Complete name : The Gaffer - 1981\The Gaffer 4.avi
Format : AVI
Format/Info : Audio Video Interleave
File size : 233 MiB
Duration : 25mn 3s
Overall bit rate : 1 300 Kbps
Writing application : VirtualDubMod 1.5.4.1 (build 2178/release)
Writing library : VirtualDubMod build 2178/release

Video
ID : 0
Format : MPEG-4 Visual
Format profile : [email protected]
Format settings, BVOP : Yes
Format settings, QPel : No
Format settings, GMC : No warppoints
Format settings, Matrix : Custom
Codec ID : XVID
Codec ID/Hint : XviD
Duration : 25mn 3s
Bit rate : 1 183 Kbps
Width : 560 pixels
Height : 416 pixels
Display aspect ratio : 4:3
Frame rate : 25.000 fps
Resolution : 24 bits
Colorimetry : 4:2:0
Scan type : Progressive
Bits/(Pixel*Frame) : 0.203
Stream size : 212 MiB (91%)
Writing library : XviD 1.2.1 (UTC 2008-12-04)

Audio
ID : 1
Format : MPEG Audio
Format version : Version 1
Format profile : Layer 3
Codec ID : 55
Codec ID/Hint : MP3
Duration : 25mn 3s
Bit rate mode : Variable
Bit rate : 104 Kbps
Nominal bit rate : 128 Kbps
Channel(s) : 2 channels
Sampling rate : 48.0 KHz
Resolution : 16 bits
Stream size : 18.6 MiB (8%)
Alignment : Aligned on interleaves
Interleave, duration : 24 ms (0.60 video frame)
Interleave, preload duration : 177 ms
Writing library : LAME3.98r
Encoding settings : -m j -V 4 -q 2 -lowpass 17 --abr 128

--------------------------------------------------------------------
5. The Trouble with Women
First Broadcast: Fri 13th February 1981
Fred has often moaned that the factory is plagued by women but when his secretary Betty takes a holiday, the temporary replacement, Rose, makes him regret his outbursts ...


General
Complete name : The Gaffer - 1981\The Gaffer 5.avi
Format : AVI
Format/Info : Audio Video Interleave
File size : 233 MiB
Duration : 25mn 33s
Overall bit rate : 1 275 Kbps
Writing application : VirtualDubMod 1.5.4.1 (build 2178/release)
Writing library : VirtualDubMod build 2178/release

Video
ID : 0
Format : MPEG-4 Visual
Format profile : [email protected]
Format settings, BVOP : Yes
Format settings, QPel : No
Format settings, GMC : No warppoints
Format settings, Matrix : Custom
Codec ID : XVID
Codec ID/Hint : XviD
Duration : 25mn 33s
Bit rate : 1 155 Kbps
Width : 528 pixels
Height : 400 pixels
Display aspect ratio : 4:3
Frame rate : 25.000 fps
Resolution : 24 bits
Colorimetry : 4:2:0
Scan type : Progressive
Bits/(Pixel*Frame) : 0.219
Stream size : 211 MiB (91%)
Writing library : XviD 1.2.1 (UTC 2008-12-04)

Audio
ID : 1
Format : MPEG Audio
Format version : Version 1
Format profile : Layer 3
Codec ID : 55
Codec ID/Hint : MP3
Duration : 25mn 33s
Bit rate mode : Variable
Bit rate : 107 Kbps
Nominal bit rate : 128 Kbps
Channel(s) : 2 channels
Sampling rate : 48.0 KHz
Resolution : 16 bits
Stream size : 19.5 MiB (8%)
Alignment : Aligned on interleaves
Interleave, duration : 24 ms (0.60 video frame)
Interleave, preload duration : 265 ms
Writing library : LAME3.98r
Encoding settings : -m j -V 4 -q 2 -lowpass 17 --abr 128

--------------------------------------------------------------------
6. England Exports
First Broadcast: Fri 20th February 1981
In an attempt to boost his sales overseas, Fred finds his efforts are not welcomed by his staff or his client - and, for his part, the bank manager has a lot to say about proceedings as well.


General
Complete name : The Gaffer - 1981\The Gaffer 6.avi
Format : AVI
Format/Info : Audio Video Interleave
File size : 233 MiB
Duration : 24mn 33s
Overall bit rate : 1 327 Kbps
Writing application : VirtualDubMod 1.5.4.1 (build 2178/release)
Writing library : VirtualDubMod build 2178/release

Video
ID : 0
Format : MPEG-4 Visual
Format profile : [email protected]
Format settings, BVOP : Yes
Format settings, QPel : No
Format settings, GMC : No warppoints
Format settings, Matrix : Custom
Codec ID : XVID
Codec ID/Hint : XviD
Duration : 24mn 33s
Bit rate : 1 209 Kbps
Width : 512 pixels
Height : 384 pixels
Display aspect ratio : 4:3
Frame rate : 25.000 fps
Resolution : 24 bits
Colorimetry : 4:2:0
Scan type : Progressive
Bits/(Pixel*Frame) : 0.246
Stream size : 212 MiB (91%)
Writing library : XviD 1.2.1 (UTC 2008-12-04)

Audio
ID : 1
Format : MPEG Audio
Format version : Version 1
Format profile : Layer 3
Codec ID : 55
Codec ID/Hint : MP3
Duration : 24mn 33s
Bit rate mode : Variable
Bit rate : 105 Kbps
Nominal bit rate : 128 Kbps
Channel(s) : 2 channels
Sampling rate : 48.0 KHz
Resolution : 16 bits
Stream size : 18.4 MiB (8%)
Alignment : Aligned on interleaves
Interleave, duration : 24 ms (0.60 video frame)
Interleave, preload duration : 486 ms
Writing library : LAME3.98r
Encoding settings : -m j -V 4 -q 2 -lowpass 17 --abr 128

===============================

Some of the other rather spiffing shows available now and always if you signup free @ www.TheBox.bz:

Comedy: The Office, Peep Show, Coupling, Chef, Fawlty Towers, Only Fools and Horses, The IT Crowd, Brass Eye, Nathan Barley, Young Ones, Monty Python, Blackadder, Alan Partridge, Father Ted, Coupling, Little Britain, Mr Bean, Extras, Green Wing, Mighty Boosh

Drama: Casualty, Holby City, The Bill, Hustle, Skins, Shameless, Ashes To Ashes

Entertainment: Faking It, Derren Brown, Scrapheap Challenge, Strictly Come Dancing, Wife Swap

Game/Quiz Shows: Whose Line Is It Anyway?, Have I Got News For You, Deal Or No Deal (UK), Q.I.

Education/Documentary: Planet Earth, Horizon, Panorama, Mark Thomas (Comedy) Product

Food: Hell's Kitchen, Jamie Oliver, The F Word, Kitchen Nightmares, Masterchef, Great British Menu, Gordon Ramsay's Cookalong

Home/Property/Garden: Property Ladder, How Clean Is Your House?, Changing Rooms, Grand Designs, Homes Under The Hammer, To Buy Or Not To Buy

Motoring: Top Gear, Fifth Gear

Music: Top Of The Pops, Jools Holland, Glastonbury

Reality: Big Brother, Celebrity Big Brother, I'm a Celebrity - Get Me Out of Here!, Any Dream Will Do, Grease, Pop Idol, Wife Swap, X Factor, Badger Or Bust, Apprentice UK, Dragons' Den, Britain's Got Talent

Sci-Fi: Doctor Who, Red Dwarf, Torchwood, Primeval

Sport: Football (Soccer), Cricket, Rugby, Snooker, Darts, Formula One (F1GP)

Soaps: Eastenders, Coronation Street, Emmerdale, Neighbours, Hollyoaks

Style/Fashion: What Not To Wear, Project Catwalk

Kids: Teletubbies, Blue Peter, Tikkabilla, Andy Pandy, Postman Pat, Shoebox Zoo, Brum, Bob The Builder, Young Dracula, Sarah Jane Adventures, Shaun The Sheep

related torrents

Torrent name

health leech seeds Size

The Gaffer Series 2

0 0 1.59 GB 0
 


comments (0)

Main Menu