Documentary

HISTORY CHANNEL The Real Dracula [abo shreek11]

  • Download 5x Faster
  • Download torrent
  • Direct Download
  • Rate this torrent +  |  -
HISTORY CHANNEL The Real Dracula [abo shreek11]

Anonymous and Free Direct Download 300GB+


Torrent info

Name:HISTORY CHANNEL The Real Dracula [abo shreek11]

Total Size: 457.37 MB

Magnet: Magnet Link

Seeds: 0

Leechers: 0

Stream: Watch Online @ Movie4u

Last Updated: 2012-07-12 12:05:04 (Update Now)

Torrent added: 2009-09-01 14:21:48



VPN For Torrents

Torrent Files List


HISTORY CHANNEL - The Real Dracula [abo_shreek11].avi (Size: 457.37 MB) (Files: 2)

 HISTORY CHANNEL - The Real Dracula [abo_shreek11].avi

457.37 MB

 HISTORY CHANNEL - The Real Dracula [abo_shreek11].nfo

2.08 KB
 

Announce URL:

Torrent description


General
Complete name : HISTORY CHANNEL - The Real Dracula [abo_shreek11].avi
Recorded By : [email protected]
Format : AVI
Format/Info : Audio Video Interleave
File size : 457 MiB
Duration : 42mn 25s
Overall bit rate : 1 507 Kbps

Video
Format : MPEG-4 Visual
Format profile : [email protected]
Format settings, BVOP : Yes
Format settings, QPel : No
Format settings, GMC : No warppoints
Format settings, Matrix : Default
Codec ID : DX50
Codec ID/Hint : DivX 5
Duration : 42mn 25s
Bit rate : 1 239 Kbps
Width : 768 pixels
Height : 576 pixels
Display aspect ratio : 4/3
Frame rate : 25.000 fps
Resolution : 24 bits
Scan type : Progressive
Bits/(Pixel*Frame) : 0.112
Stream size : 376 MiB (82%)
Writing library : ivx5.3

Audio
Format : MPEG Audio
Format version : Version 1
Format profile : Layer 3
Codec ID : 55
Codec ID/Hint : MP3
Duration : 42mn 25s
Bit rate mode : Constant
Bit rate : 256 Kbps
Channel(s) : 2 channels
Sampling rate : 48.0 KHz
Resolution : 16 bits
Stream size : 77.7 MiB (17%)
Alignment : Aligned on interleaves
Interleave, duration : 24 ms (0.60 video frame)
Interleave, preload duration : 24 ms

The Real Dracula. The fictitious vampire was based on a real Romanian prince, famous for both his cruelty and courage. The astounding empire built by the fearsome warlord is re-created.

related torrents

Torrent name

health leech seeds Size
 


comments (0)

Main Menu