Documentary

HISTORY CHANNEL Russia's Ape Man [abo shreek11]

  • Download 5x Faster
  • Download torrent
  • Direct Download
  • Rate this torrent +  |  -
HISTORY CHANNEL Russia's Ape Man [abo shreek11]

Free and Direct Download with Usenet 300GB+ free


Torrent info

Name:HISTORY CHANNEL Russia's Ape Man [abo shreek11]

Total Size: 542.70 MB

Magnet: Magnet Link

Seeds: 0

Leechers: 0

Stream: Watch Online @ Movie4u

Last Updated: 2009-12-05 09:10:50 (Update Now)

Torrent added: 2009-09-01 14:21:25




Torrent Files List


HISTORY CHANNEL - Russia's Ape Man [abo_shreek11].avi (Size: 542.70 MB) (Files: 2)

 HISTORY CHANNEL - Russia's Ape Man [abo_shreek11].avi

542.70 MB

 HISTORY CHANNEL - Russia's Ape Man [abo_shreek11].nfo

2.07 KB
 

Announce URL: http://open.tracker.thepiratebay.org/announce

Torrent description

General
Complete name : HISTORY CHANNEL - Russia's Ape Man [abo_shreek11].avi
Recorded By : [email protected]
Format : AVI
Format/Info : Audio Video Interleave
File size : 543 MiB
Duration : 50mn 16s
Overall bit rate : 1 509 Kbps

Video
Format : MPEG-4 Visual
Format profile : [email protected]
Format settings, BVOP : Yes
Format settings, QPel : No
Format settings, GMC : No warppoints
Format settings, Matrix : Default
Codec ID : DX50
Codec ID/Hint : DivX 5
Duration : 50mn 16s
Bit rate : 1 240 Kbps
Width : 768 pixels
Height : 576 pixels
Display aspect ratio : 4/3
Frame rate : 25.000 fps
Resolution : 24 bits
Scan type : Progressive
Bits/(Pixel*Frame) : 0.112
Stream size : 446 MiB (82%)
Writing library : ivx5.3

Audio
Format : MPEG Audio
Format version : Version 1
Format profile : Layer 3
Codec ID : 55
Codec ID/Hint : MP3
Duration : 50mn 16s
Bit rate mode : Constant
Bit rate : 256 Kbps
Channel(s) : 2 channels
Sampling rate : 48.0 KHz
Resolution : 16 bits
Stream size : 92.0 MiB (17%)
Alignment : Aligned on interleaves
Interleave, duration : 24 ms (0.60 video frame)
Interleave, preload duration : 24 ms

Russia's Ape Man. Intriguing look at Soviet dictator Josef Stalin's attempts to create monsters by crossing humans with apes, as revealed in The New York Times in 2006.

related torrents

Torrent name

health leech seeds Size
 

comments (0)

Main Menu