Documentary

HISTORY CHANNEL Da Vinci Tech [abo shreek11]

  • Download 5x Faster
  • Download torrent
  • Direct Download
  • Rate this torrent +  |  -
HISTORY CHANNEL Da Vinci Tech [abo shreek11]

Anonymous and Free Direct Download 300GB+


Torrent info

Name:HISTORY CHANNEL Da Vinci Tech [abo shreek11]

Total Size: 463.60 MB

Magnet: Magnet Link

Seeds: 0

Leechers: 0

Stream: Watch Online @ Movie4u

Last Updated: 0000-00-00 00:00:00 (Update Now)

Torrent added: 2009-09-01 14:20:40



VPN For Torrents

Torrent Files List


HISTORY CHANNEL - Da Vinci Tech [abo_shreek11].avi (Size: 463.60 MB) (Files: 2)

 HISTORY CHANNEL - Da Vinci Tech [abo_shreek11].avi

463.60 MB

 HISTORY CHANNEL - Da Vinci Tech [abo_shreek11].nfo

2.08 KB
 

Announce URL: http://open.tracker.thepiratebay.org/announce

Torrent description

General
Complete name : HISTORY CHANNEL - Da Vinci Tech [abo_shreek11].avi
Recorded By : [email protected]
Format : AVI
Format/Info : Audio Video Interleave
File size : 464 MiB
Duration : 43mn 27s
Overall bit rate : 1 492 Kbps

Video
Format : MPEG-4 Visual
Format profile : [email protected]
Format settings, BVOP : Yes
Format settings, QPel : No
Format settings, GMC : No warppoints
Format settings, Matrix : Default
Codec ID : DX50
Codec ID/Hint : DivX 5
Duration : 43mn 27s
Bit rate : 1 223 Kbps
Width : 768 pixels
Height : 576 pixels
Display aspect ratio : 4/3
Frame rate : 25.000 fps
Resolution : 24 bits
Scan type : Progressive
Bits/(Pixel*Frame) : 0.111
Stream size : 380 MiB (82%)
Writing library : ivx5.3

Audio
Format : MPEG Audio
Format version : Version 1
Format profile : Layer 3
Codec ID : 55
Codec ID/Hint : MP3
Duration : 43mn 27s
Bit rate mode : Constant
Bit rate : 256 Kbps
Channel(s) : 2 channels
Sampling rate : 48.0 KHz
Resolution : 16 bits
Stream size : 79.6 MiB (17%)
Alignment : Aligned on interleaves
Interleave, duration : 24 ms (0.60 video frame)
Interleave, preload duration : 24 ms

Da Vinci Tech. Leonardo was a great visionary, sketching many inventions hundreds of years before they could be made. How did a 15th- century man envision 20th-century innovations.

related torrents

Torrent name

health leech seeds Size
 


comments (0)

Main Menu