UK

Man Vs Wild S05E11 Romania (16th February 2009) [HDTV (XviD)]

  • Download 5x Faster
  • Download torrent
  • Direct Download
  • Rate this torrent +  |  -
Man Vs Wild S05E11 Romania (16th February 2009) [HDTV (XviD)]

Anonymous and free Direct Download 300GB+


Torrent info

Name:Man Vs Wild S05E11 Romania (16th February 2009) [HDTV (XviD)]

Total Size: 347.73 MB

Magnet: Magnet Link

Seeds: 0

Leechers: 0

Stream: Watch Online @ Movie4u

Last Updated: 2015-10-19 21:14:55 (Update Now)

Torrent added: 2009-09-01 14:02:16



SpyOFF VPN

Torrent Files List


Man.vs.Wild.S05E11.HDTV.XviD-W4F.avi (Size: 347.73 MB) (Files: 1)

 Man.vs.Wild.S05E11.HDTV.XviD-W4F.avi

347.73 MB
 

tracker

leech seeds
 

Torrent description

This torrent was uploaded from www.TheBox.bz (signup is open and free) - the home of all British TV

Man Vs Wild   S05E11   Romania (16th February 2009) [HDTV (XviD)] preview 0

Man Vs Wild (aka Born Survivor: Bear Grylls)

Date: 16th Feruary 2009
On: Discovery Channel

S05E11 - Romania
Bear Grylls enters the forest of Transylvania, where he encounters steep ravines, an underground water system and an adult brown bear.

Wiki: [url]http://en.wikipedia.org/wiki/Man_vs._Wild[/url]

There is also an episode guide in the forums here:

[url]http://thebox.bz/forums.php?action=viewtopic&topicid=18280[/url]


General
Complete name : Man.vs.Wild.S05E11.HDTV.XviD-W4F.avi
Format : AVI
Format/Info : Audio Video Interleave
File size : 348 MiB
Duration : 43mn 32s
Overall bit rate : 1 116 Kbps
Writing application : MEncoder dev-SVN-rUNKNOWN-4.1.2
Writing library : MPlayer

Video
Format : MPEG-4 Visual
Format profile : Streaming [email protected]
Format settings, BVOP : Yes
Format settings, QPel : No
Format settings, GMC : No warppoints
Format settings, Matrix : Default
Codec ID : XVID
Codec ID/Hint : XviD
Duration : 43mn 32s
Bit rate : 975 Kbps
Width : 624 pixels
Height : 352 pixels
Display aspect ratio : 16/9
Frame rate : 29.970 fps
Resolution : 24 bits
Colorimetry : 4:2:0
Scan type : Progressive
Bits/(Pixel*Frame) : 0.148
Stream size : 304 MiB (87%)
Writing library : XviD 1.2.1 (UTC 2008-12-04)

Audio
Format : MPEG Audio
Format version : Version 1
Format profile : Layer 3
Codec ID : 55
Codec ID/Hint : MP3
Duration : 43mn 32s
Bit rate mode : Variable
Bit rate : 128 Kbps
Minimum bit rate : 128 Kbps
Channel(s) : 2 channels
Sampling rate : 48.0 KHz
Resolution : 16 bits
Stream size : 39.9 MiB (11%)
Alignment : Aligned on interleaves
Interleave, duration : 24 ms (0.72 video frame)
Interleave, preload duration : 144 ms
Writing library : LAME3.96
Encoding settings : ABR




Enjoy!

DaveRandom
On behalf of JuiCe



===============================

Some of the other rather spiffing shows available now and always if you signup free @ www.TheBox.bz:

Comedy: The Office, Peep Show, Coupling, Chef, Fawlty Towers, Only Fools and Horses, The IT Crowd, Brass Eye, Nathan Barley, Young Ones, Monty Python, Blackadder, Alan Partridge, Father Ted, Coupling, Little Britain, Mr Bean, Extras, Green Wing, Mighty Boosh

Drama: Casualty, Holby City, The Bill, Hustle, Skins, Shameless, Ashes To Ashes

Entertainment: Faking It, Derren Brown, Scrapheap Challenge, Strictly Come Dancing, Wife Swap

Game/Quiz Shows: Whose Line Is It Anyway?, Have I Got News For You, Deal Or No Deal (UK), Q.I.

Education/Documentary: Planet Earth, Horizon, Panorama, Mark Thomas (Comedy) Product

Food: Hell's Kitchen, Jamie Oliver, The F Word, Kitchen Nightmares, Masterchef, Great British Menu, Gordon Ramsay's Cookalong

Home/Property/Garden: Property Ladder, How Clean Is Your House?, Changing Rooms, Grand Designs, Homes Under The Hammer, To Buy Or Not To Buy

Motoring: Top Gear, Fifth Gear

Music: Top Of The Pops, Jools Holland, Glastonbury

Reality: Big Brother, Celebrity Big Brother, I'm a Celebrity - Get Me Out of Here!, Any Dream Will Do, Grease, Pop Idol, Wife Swap, X Factor, Badger Or Bust, Apprentice UK, Dragons' Den, Britain's Got Talent

Sci-Fi: Doctor Who, Red Dwarf, Torchwood, Primeval

Sport: Football (Soccer), Cricket, Rugby, Snooker, Darts, Formula One (F1GP)

Soaps: Eastenders, Coronation Street, Emmerdale, Neighbours, Hollyoaks

Style/Fashion: What Not To Wear, Project Catwalk

Kids: Teletubbies, Blue Peter, Tikkabilla, Andy Pandy, Postman Pat, Shoebox Zoo, Brum, Bob The Builder, Young Dracula, Sarah Jane Adventures, Shaun The Sheep

related torrents

Torrent name

health leech seeds Size

Man Vs Wild S05e11 Romania

0 0 347.00 MB 0
 


comments (0)

Main Menu