UK

Islands of Scotland Part 5 of 6 Mull Iona Coll and Tiree (2005) [DVDRip (XviD)]

  • Download 5x Faster
  • Download torrent
  • Direct Download
  • Rate this torrent +  |  -
Islands of Scotland Part 5 of 6 Mull Iona Coll and Tiree (2005) [DVDRip (XviD)]

Free and Direct Download with Usenet.nl 300GB+ free


Torrent info

Name:Islands of Scotland Part 5 of 6 Mull Iona Coll and Tiree (2005) [DVDRip (XviD)]

Total Size: 373.98 MB

Magnet: Magnet Link

Seeds: 11

Leechers: 0

Stream: Watch Online @ Movie4u

Last Updated: 2010-11-16 00:19:59 (Update Now)

Torrent added: 2009-09-01 13:56:40





Torrent Files List


Islands of Scotland – Mull Iona Coll and Tiree 5of6 (2005)[DVDRip (Xvid)].avi (Size: 373.98 MB) (Files: 1)

 Islands of Scotland – Mull Iona Coll and Tiree 5of6 (2005)[DVDRip (Xvid)].avi

373.98 MB
 

Announce URL: http://www.thebox.bz:2710/00000000000000000000000000000000/announce

Torrent description

This torrent was uploaded from www.TheBox.bz (signup is open and free) - the home of all British TV

Islands of Scotland

The Islands of Scotland Tv Series features over six distinct journeys allowing the viewer to marvel at the staggering beauty of Scotland's islands from the air.
This stunning television series was funded by Seirbheis nam Meadhanan Gàidhlig and originally produced in the Gaelic language by SMG TV Productions. Its title, 'Iomall nan Tonn' - 'The Edge of the Waves' - is beautifully appropriate.

The film visits:
Isle of Skye and The Small Isles (Muck, Eigg, Rum, Sanday, Canna)
The Orkney Isles
The Islands of Islay, Jura, Colonsay & Gigha
The Shetland Islands
The Islands of Mull, Iona, Coll & Tiree
The Western Isles

Islands of Scotland demonstrates the latest in challenging aerial photography technology and shows the islands in a dramatic new light, from some of the remotest islands in the UK, to some that are within easy reach of Scotland's mainland cities. A wonderful glimpse of Scotland's beautiful areas.

######PLEASE NOTE#######

THIS VIDEO FILE ONLY FEATURES THE MULL IONA AND TIREE ISLANDS
I ALSO WANT TO SAY THANK YOU TO THE MGV GROUP FOR LETTING ME POST
THERE VIDEO FILE.
I ALSO WANT TO PRAISE DENTJE FOR HIS FINE DVD RIPPING.
IF ANYONE IS INTERESTED IN THE MGV GROUP HERE IS THERE ADDRESS
www.mvgroup.org

_____________________________________________________________________
File Specs:

=== File Information ===
File Name: Islands of Scotland – Mull Iona Coll and Tiree 5of6 (2005)[DVDRip (Xvid)]
Duration: 00:23:32
File Size: 373 MB (392,145,002 bytes)

=== Video Information ===
Format : AVI
Format/Info : Audio Video Interleave
Format profile : OpenDML
File size : 374 MiB
Duration : 23mn 32s
Overall bit rate : 2 221 Kbps
Writing application : AVI-Mux GUI 1.17.7, Aug 8 2006 20:59:17

Video
Format : MPEG-4 Visual
Format profile : Streaming [email protected]
Format settings, BVOP : Yes
Format settings, QPel : No
Format settings, GMC : No warppoints
Format settings, Matrix : Default
Codec ID : XVID
Codec ID/Hint : XviD
Duration : 23mn 32s
Bit rate : 1 829 Kbps
Width : 704 pixels
Height : 400 pixels
Display aspect ratio : 16/9
Frame rate : 25.000 fps
Resolution : 24 bits
Colorimetry : 4:2:0
Scan type : Progressive
Bits/(Pixel*Frame) : 0.260
Stream size : 308 MiB (82%)
Writing library : XviD 50

Audio #1
Format : AC-3
Format/Info : Audio Coding 3
Codec ID : 2000
Bit rate mode : Constant
Bit rate : 192 Kbps
Channel(s) : 2 channels
Channel positions : L R
Sampling rate : 48.0 KHz
Stream size : 32.3 MiB (9%)
Alignment : Aligned on interleaves
Interleave, duration : 64 ms (1.60 video frames)
Interleave, preload duration : 192 ms
Title : VTS_01_1 T80 2_0ch 192Kbps DELAY 0ms

Audio #2
Format : AC-3
Format/Info : Audio Coding 3
Codec ID : 2000
Bit rate mode : Constant
Bit rate : 192 Kbps
Channel(s) : 2 channels
Channel positions : L R
Sampling rate : 48.0 KHz
Stream size : 32.3 MiB (9%)
Alignment : Aligned on interleaves
Interleave, duration : 64 ms (1.60 video frames)
Interleave, preload duration : 192 ms
Title : VTS_01_1 T81 2_0ch 192Kbps DELAY 0ms






===============================

Some of the other rather spiffing shows available now and always if you signup free @ www.TheBox.bz:

Comedy: The Office, Peep Show, Coupling, Chef, Fawlty Towers, Only Fools and Horses, The IT Crowd, Brass Eye, Nathan Barley, Young Ones, Monty Python, Blackadder, Alan Partridge, Father Ted, Coupling, Little Britain, Mr Bean, Extras, Green Wing, Mighty Boosh

Drama: Casualty, Holby City, The Bill, Hustle, Skins, Shameless, Ashes To Ashes

Entertainment: Faking It, Derren Brown, Scrapheap Challenge, Strictly Come Dancing, Wife Swap

Game/Quiz Shows: Whose Line Is It Anyway?, Have I Got News For You, Deal Or No Deal (UK), Q.I.

Education/Documentary: Planet Earth, Horizon, Panorama, Mark Thomas (Comedy) Product

Food: Hell's Kitchen, Jamie Oliver, The F Word, Kitchen Nightmares, Masterchef, Great British Menu, Gordon Ramsay's Cookalong

Home/Property/Garden: Property Ladder, How Clean Is Your House?, Changing Rooms, Grand Designs, Homes Under The Hammer, To Buy Or Not To Buy

Motoring: Top Gear, Fifth Gear

Music: Top Of The Pops, Jools Holland, Glastonbury

Reality: Big Brother, Celebrity Big Brother, I'm a Celebrity - Get Me Out of Here!, Any Dream Will Do, Grease, Pop Idol, Wife Swap, X Factor, Badger Or Bust, Apprentice UK, Dragons' Den, Britain's Got Talent

Sci-Fi: Doctor Who, Red Dwarf, Torchwood, Primeval

Sport: Football (Soccer), Cricket, Rugby, Snooker, Darts, Formula One (F1GP)

Soaps: Eastenders, Coronation Street, Emmerdale, Neighbours, Hollyoaks

Style/Fashion: What Not To Wear, Project Catwalk

Kids: Teletubbies, Blue Peter, Tikkabilla, Andy Pandy, Postman Pat, Shoebox Zoo, Brum, Bob The Builder, Young Dracula, Sarah Jane Adventures, Shaun The Sheep

related torrents

Torrent name

health leech seeds Size
 

comments (0)

Main Menu