UK

Eddie Izzard Unrepeatable (1994) [DVDRip (XviD)] JuiCe

  • Download 5x Faster
  • Download torrent
  • Direct Download
  • Rate this torrent +  |  -
Eddie Izzard Unrepeatable (1994) [DVDRip (XviD)] JuiCe

Free and Direct Download with Usenet.nl 300GB+ free


Torrent info

Name:Eddie Izzard Unrepeatable (1994) [DVDRip (XviD)] JuiCe

Total Size: 697.95 MB

Magnet: Magnet Link

Seeds: 12

Leechers: 0

Stream: Watch Online @ Movie4u

Last Updated: 2010-12-22 08:19:21 (Update Now)

Torrent added: 2009-09-01 13:46:14





Torrent Files List


Eddie.Izzard.Unrepeatable.1994.DVDRip.XviD-JuiCe.avi (Size: 697.95 MB) (Files: 1)

 Eddie.Izzard.Unrepeatable.1994.DVDRip.XviD-JuiCe.avi

697.95 MB
 

Announce URL: http://www.thebox.bz:2710/00000000000000000000000000000000/announce

Torrent description

This torrent was uploaded from www.TheBox.bz (signup is open and free) - the home of all British TV

Eddie Izzard - Unrepeatable (1994) [DVDRip]
w/ Audio Commentry on second channel

Eddie Izzard   Unrepeatable (1994) [DVDRip (XviD)] JuiCe preview 0

Source: DVD
Length: 76 Mins
Released: 1994

"Unrepeatable" was recorded at the Albery Theatre in March of 1994 for a limited sold-out engagement of seven weeks, where he played to 34,000 fans. He won rave reviews all around. According to the UK national daily The Independent: "If all the awards and nominations have gone to his head, Izzard's performance does not show it. When he pulls up in mid-flow there is the same sense you get with Robin Williams sometimes, of the audience racing to catch up with a mind that moves too quickly for them." Subjects comprised in this one-man show include: New Improved Dyslexia, Secret Magicians, Dopey Politicians, Jumpy Spiders, Men In Dresses, God's Creatures, Aqua Zimmer frame, Horror Movies, Star Trek & Do Earwigs Make Chutney?


General
Complete name : Eddie.Izzard.Unrepeatable.1994.DVDRip.XviD-JuiCe.avi
Format : AVI
Format/Info : Audio Video Interleave
File size : 698 MiB
Duration : 1h 15mn
Overall bit rate : 1 290 Kbps
Writing application : VirtualDubMod 1.5.10.2 (build 2540/release)
Writing library : VirtualDubMod build 2540/release

Video
Format : MPEG-4 Visual
Format profile : Streaming [email protected]
Format settings, BVOP : Yes
Format settings, QPel : No
Format settings, GMC : No warppoints
Format settings, Matrix : Default
Muxing mode : Packed bitstream
Codec ID : XVID
Codec ID/Hint : XviD
Duration : 1h 15mn
Bit rate : 997 Kbps
Width : 512 pixels
Height : 384 pixels
Display aspect ratio : 4/3
Frame rate : 25.000 fps
Resolution : 24 bits
Colorimetry : 4:2:0
Scan type : Progressive
Bits/(Pixel*Frame) : 0.203
Stream size : 540 MiB (77%)
Writing library : XviD 1.0.3 (UTC 2004-12-20)

Audio #1
Format : MPEG Audio
Format version : Version 1
Format profile : Layer 3
Codec ID : 55
Codec ID/Hint : MP3
Duration : 1h 15mn
Bit rate mode : Variable
Bit rate : 134 Kbps
Nominal bit rate : 140 Kbps
Channel(s) : 2 channels
Sampling rate : 48.0 KHz
Resolution : 16 bits
Stream size : 72.3 MiB (10%)
Alignment : Aligned on interleaves
Interleave, duration : 24 ms (0.60 video frame)
Interleave, preload duration : 528 ms
Writing library : LAME3.90.
Encoding settings : ABR

Audio #2
Format : MPEG Audio
Format version : Version 1
Format profile : Layer 3
Codec ID : 55
Codec ID/Hint : MP3
Duration : 1h 15mn
Bit rate mode : Variable
Bit rate : 138 Kbps
Nominal bit rate : 140 Kbps
Channel(s) : 2 channels
Sampling rate : 48.0 KHz
Resolution : 16 bits
Stream size : 74.8 MiB (11%)
Alignment : Aligned on interleaves
Interleave, duration : 24 ms (0.60 video frame)
Interleave, preload duration : 133 ms
Writing library : LAME3.90.
Encoding settings : ABR


This is a DVDRip encoded to XviD. There is a torrent on file at the moment but it has an unknown source and encoded to DX-50?? I dont even know what that is lol. and has no description.

This encode also has the audio commentary (by Izzard himself) on audio channel 2. There are no other real extras to talk about apart from a bleeped sound track. I left that out....

Enjoy!

JuiCe

PS - The CD Audio can be found on the box here: [url]http://thebox.bz/details.php?id=4906[/url]

===============================

Some of the other rather spiffing shows available now and always if you signup free @ www.TheBox.bz:

Comedy: The Office, Peep Show, Coupling, Chef, Fawlty Towers, Only Fools and Horses, The IT Crowd, Brass Eye, Nathan Barley, Young Ones, Monty Python, Blackadder, Alan Partridge, Father Ted, Coupling, Little Britain, Mr Bean, Extras, Green Wing, Mighty Boosh

Drama: Casualty, Holby City, The Bill, Hustle, Skins, Shameless, Ashes To Ashes

Entertainment: Faking It, Derren Brown, Scrapheap Challenge, Strictly Come Dancing, Wife Swap

Game/Quiz Shows: Whose Line Is It Anyway?, Have I Got News For You, Deal Or No Deal (UK), Q.I.

Education/Documentary: Planet Earth, Horizon, Panorama, Mark Thomas (Comedy) Product

Food: Hell's Kitchen, Jamie Oliver, The F Word, Kitchen Nightmares, Masterchef, Great British Menu, Gordon Ramsay's Cookalong

Home/Property/Garden: Property Ladder, How Clean Is Your House?, Changing Rooms, Grand Designs, Homes Under The Hammer, To Buy Or Not To Buy

Motoring: Top Gear, Fifth Gear

Music: Top Of The Pops, Jools Holland, Glastonbury

Reality: Big Brother, Celebrity Big Brother, I'm a Celebrity - Get Me Out of Here!, Any Dream Will Do, Grease, Pop Idol, Wife Swap, X Factor, Badger Or Bust, Apprentice UK, Dragons' Den, Britain's Got Talent

Sci-Fi: Doctor Who, Red Dwarf, Torchwood, Primeval

Sport: Football (Soccer), Cricket, Rugby, Snooker, Darts, Formula One (F1GP)

Soaps: Eastenders, Coronation Street, Emmerdale, Neighbours, Hollyoaks

Style/Fashion: What Not To Wear, Project Catwalk

Kids: Teletubbies, Blue Peter, Tikkabilla, Andy Pandy, Postman Pat, Shoebox Zoo, Brum, Bob The Builder, Young Dracula, Sarah Jane Adventures, Shaun The Sheep

related torrents

Torrent name

health leech seeds Size
 

comments (0)

Main Menu