UK

Classic Emmerdale (9th January 1996)[VHSRip (XVID)]

  • Download 5x Faster
  • Download torrent
  • Direct Download
  • Rate this torrent +  |  -
Classic Emmerdale (9th January 1996)[VHSRip (XVID)]

Free and Direct Download with Usenet.nl 300GB+ free


Torrent info

Name:Classic Emmerdale (9th January 1996)[VHSRip (XVID)]

Total Size: 193.73 MB

Magnet: Magnet Link

Seeds: 2

Leechers: 0

Stream: Watch Online @ Movie4u

Last Updated: 2012-01-26 21:23:04 (Update Now)

Torrent added: 2009-09-01 13:36:16





Torrent Files List


Classic Emmerdale 1996.01.09.TvRip.Xvid.(2043).Robinhood99.avi (Size: 193.73 MB) (Files: 1)

 Classic Emmerdale 1996.01.09.TvRip.Xvid.(2043).Robinhood99.avi

193.73 MB
 

Announce URL: http://www.thebox.bz:2710/00000000000000000000000000000000/announce

Torrent description

This torrent was uploaded from www.TheBox.bz (signup is open and free) - the home of all British TV



Classic Emmerdale (9th  January 1996)[VHSRip (XVID)] preview 0


==ORIGINAL UK AIR DATEs:==
9th January 1996
Episode(S) 2043
==Description==

---------------------------------------------------------------------------------------------
[url]http://www.itnsource.com/shotlist//ITVProgs/1996/01/09/Y05242043/?s=emmerdale+2043[/url]


PART 1 - the fight between Rick & Biff spills out onto the street ; Linda brings Terry over to help, but Biff sorts it out & gets rid of Rick ; he refuses to go back with his mum & tells Linda " you don't know her like I do " ; Tina arrives home ; she has not been charged ; Scott bunks off school to spend time with Seth ; Linda tends to Biff's wounds ; she wants Biff to make his peace with his mum ; she also tells him that she is moving back home ; they talk about getting a flat together, but realise that they are going to have to work hard & save up just to afford the deposit ; Frank & Zoe persuade Kim to go home ; Frank is desperate to talk to Zoe alone ; Biff asks Dave to use his influence to get him a pay rise ; Dave tells him that he asked Kim if she would give everything up & run away with him ; Biff is not surprised when Dave tells him that Kim refused; he is surprised that Dave is still seeing her though ; he tells Dave " maybe it's going to take me & Linda years to build up an honest life together, but at least we'll get there. You & Kim will be finished long before that "; Scott talks to Seth about living in Emmerdale ; he wants to leave as soon as he can & join the army ; Frank & Zoe have a heart to heart, but he still does not manage to tell her about Kim ; Eric calls at the Dingles & demands his money back ; Tina insists that Dillon's men took it ; he is furious & takes his anger out on Sam by sacking him ; Biff, Seth & Nick are having a game of cards ; they persuade Dave to join in ; Kim arrives home
& tells everyone off including Dave ; he gets fed up with
this treatment & tells her that he wants to sort things out
; Frank finally tells Zoe that the baby is not his " Kim's
been having an affair with Dave, he's the father ".
PART 2 - Zoe is shocked by Frank's news ; they are
discussing it when Alan turns up to visit ; Dave tells Kim
that he wants them to be together ; Rachel is getting fed
up of Chris spending all his time trying to find a way to
stop Kim ruining him ; she wants him to sell his shares &
pay off his debts so that they can start to build a normal life ; Scott asks Vic what happened to the airgun that he
was promised ; Viv doesn't approve of guns after what
happened with Reg ; Jan & Ned are trying to encourage Roy
to dump Kelly after the trouble she has caused ; Frank
blames himself for taking Kim back after the Neil Kincaid
affair ; Zoe just wants him to concentrate on getting
better rather than spending his time thinking of getting
revenge on Kim ; Biff & Linda ask around for odd jobs ; Zoe
refuses to help Frank in his attempt to get revenge on Kim
& Dave ; she wants him to let the business go & come & live
with her & Emma so that she can look after him ; he refuses
& says that he doesn't care if getting revenge kills him.
---------------------------------------------------------------------------------------------




[SIZE=1]
Format : MPEG-4 Visual
Format profile : Streaming [email protected]
Format settings, BVOP : Yes
Format settings, QPel : No
Format settings, GMC : No warppoints
Format settings, Matrix : Default
Muxing mode : Packed bitstream
Codec ID : XVID
Codec ID/Hint : XviD
Duration : 24mn 24s
Bit rate : 960 Kbps
Width : 640 pixels
Height : 480 pixels
Display aspect ratio : 4/3
Frame rate : 25.000 fps
Resolution : 24 bits
Colorimetry : 4:2:0
Scan type : Progressive
Bits/(Pixel*Frame) : 0.125
Stream size : 168 MiB (87%)
Writing library : XviD 1.0.3 (UTC 2004-12-20)

Format : MPEG Audio
Format version : Version 1
Format profile : Layer 3
Codec ID : 55
Codec ID/Hint : MP3
Duration : 24mn 24s
Bit rate mode : Variable
Bit rate : 137 Kbps
Nominal bit rate : 128 Kbps
Channel(s) : 2 channels
Sampling rate : 48.0 KHz
Resolution : 16 bits
Stream size : 23.8 MiB (12%)
Alignment : Aligned on interleaves
Interleave, duration : 24 ms (0.60 video frame)
Interleave, preload duration : 135 ms
Writing library : LAME3.90.
Encoding settings : ABR



[/SIZE]





===============================

Some of the other rather spiffing shows available now and always if you signup free @ www.TheBox.bz:

Comedy: The Office, Peep Show, Coupling, Chef, Fawlty Towers, Only Fools and Horses, The IT Crowd, Brass Eye, Nathan Barley, Young Ones, Monty Python, Blackadder, Alan Partridge, Father Ted, Coupling, Little Britain, Mr Bean, Extras, Green Wing, Mighty Boosh

Drama: Casualty, Holby City, The Bill, Hustle, Skins, Shameless, Ashes To Ashes

Entertainment: Faking It, Derren Brown, Scrapheap Challenge, Strictly Come Dancing, Wife Swap

Game/Quiz Shows: Whose Line Is It Anyway?, Have I Got News For You, Deal Or No Deal (UK), Q.I.

Education/Documentary: Planet Earth, Horizon, Panorama, Mark Thomas (Comedy) Product

Food: Hell's Kitchen, Jamie Oliver, The F Word, Kitchen Nightmares, Masterchef, Great British Menu, Gordon Ramsay's Cookalong

Home/Property/Garden: Property Ladder, How Clean Is Your House?, Changing Rooms, Grand Designs, Homes Under The Hammer, To Buy Or Not To Buy

Motoring: Top Gear, Fifth Gear

Music: Top Of The Pops, Jools Holland, Glastonbury

Reality: Big Brother, Celebrity Big Brother, I'm a Celebrity - Get Me Out of Here!, Any Dream Will Do, Grease, Pop Idol, Wife Swap, X Factor, Badger Or Bust, Apprentice UK, Dragons' Den, Britain's Got Talent

Sci-Fi: Doctor Who, Red Dwarf, Torchwood, Primeval

Sport: Football (Soccer), Cricket, Rugby, Snooker, Darts, Formula One (F1GP)

Soaps: Eastenders, Coronation Street, Emmerdale, Neighbours, Hollyoaks

Style/Fashion: What Not To Wear, Project Catwalk

Kids: Teletubbies, Blue Peter, Tikkabilla, Andy Pandy, Postman Pat, Shoebox Zoo, Brum, Bob The Builder, Young Dracula, Sarah Jane Adventures, Shaun The Sheep

related torrents

Torrent name

health leech seeds Size
 

comments (0)

Main Menu