UK

Classic Emmerdale (5th December 1995)[VHSRip (XVID)]

  • Download 5x Faster
  • Download torrent
  • Direct Download
  • Rate this torrent +  |  -
Classic Emmerdale (5th December 1995)[VHSRip (XVID)]

Free and Direct Download with Usenet 300GB+ free


Torrent info

Name:Classic Emmerdale (5th December 1995)[VHSRip (XVID)]

Total Size: 194.81 MB

Magnet: Magnet Link

Seeds: 3

Leechers: 0

Stream: Watch Online @ Movie4u

Last Updated: 2010-10-07 10:25:49 (Update Now)

Torrent added: 2009-09-01 13:36:12




Torrent Files List


Classic Emmerdale 1995.12.05.TvRip.Xvid.(2032).Robinhood99.avi (Size: 194.81 MB) (Files: 1)

 Classic Emmerdale 1995.12.05.TvRip.Xvid.(2032).Robinhood99.avi

194.81 MB
 

Announce URL: http://www.thebox.bz:2710/00000000000000000000000000000000/announce

Torrent description

This torrent was uploaded from www.TheBox.bz (signup is open and free) - the home of all British TV



Classic Emmerdale (5th  December 1995)[VHSRip (XVID)] preview 0


==ORIGINAL UK AIR DATEs:==
5th December 1995
Episode(S) 2032
==Description==
---------------------------------------------------------------------------------------------
[url]http://www.itnsource.com/shotlist//ITVProgs/1995/12/05/Y05242032/?s=emmerdale+2032[/url]


EPISODE 2032
Synopsis: PART 1 - Biff assures Dave that his dad has nothing to worry about ; he is not another Daniel Weir & he is not going to take advantage of Linda ; Biff thinks that Ned should be more concerned about what Dave gets up to ; Nick is fretting about Alice ; he makes Kathy promise not to let her out of her sight ; Ned tells Jan about Chris & Rachel's wedding ; Linda rows with Ned ; she insists that she was only chatting with Biff ; Chris & Rachel receive their invitation to the party at Home Farm ; they have no intention of going ; Vic's records have gone missing ; Scott is the main culprit ; Sarah insists that Rachel spends her last night of freedom at the farm ; she tells her that Jack will stay with Chris ; they both go off shopping for Rachel's wedding dress ; Emma tries unsuccessfully to make Linda see Ned's point of view ; Terry volunteers Eric to help out at the disco on the soft drinks counter ; Kim laughs when she hears that Kathy is refusing to sleep with Dave until they are married ; she tells him that she misses him ; they kiss in the stables where their affair began.
PART 2 - Biff is suspicious when he sees Dave coming out of the stables ; he realises what has been going on when Kim emerges a moment later - brushing straw from her clothes ; Sarah & Rachel are both embarrassed when they bump into Frank while out shopping ; Rachel is trying on a new dress & Frank thinks that it must be for the party ; he offers to buy it for her, but she refuses ; Dave comes to collect the Dingles rent ; Tina makes up some excuse about a standing
order not going through ; Dave says that he will call round
in a couple of days & he won't leave until he gets their
first months rent ; Tina quips " better make a bed up for
him then " ; Rachel tells Chris that Jack is coming to keep
him company while she goes off to see Sarah ; Butch is
looking forward to the teenage disco ; Dave finds Frank's
present to Kim - a black negligee ; she teases Dave by
asking what he thinks of it ; the Windsor kids are
depressed when Vic finds his records just in time for the disco ; Linda is fed up about being stuck at home with her
parents ; the disco is in full swing ; Vic's music is not
going down well ; Eric is planning to sell vodka with the
soft drinks ; Terry asks him how much he got for his granny
; Sam mimes to Status Quo with a broom while Butch tries to
chat up a 14 year old " grab your coat, you've pulled " ;
she is not impressed ; Kathy & Nick both refuse to go to
the Tates party ; Butch & Sam are the only people dancing
at the disco ; most of the kids have never heard of any of
the records ; Eric is doing a roaring trade in Vodka &
Lemonade ; Viv & Terry try to persuade Vic to take a break
; he agrees & Roy immediately steps up to the mike & puts
on a Supergrass CD ; the disco starts to look lively ;
Linda tries to explain to her parents why she got rid of
her baby ; she says that she couldn't talk to them ; she
ends up rowing with Ned & storms off saying that she wants
to leave home ; Vic is in a mood after being removed as DJ
; he refuses to dance with Viv so she rock 'n rolls with
Terry ; Sam throws a bucket of water over a courting couple
; it turns out to be Butch & girl ; Linda arrives in tears
on Betty's doorstep ; she tells Biff & Betty that she has left home & wants to live with them.
---------------------------------------------------------------------------------------------




[SIZE=1]
Format : MPEG-4 Visual
Format profile : Streaming [email protected]
Format settings, BVOP : Yes
Format settings, QPel : No
Format settings, GMC : No warppoints
Format settings, Matrix : Default
Muxing mode : Packed bitstream
Codec ID : XVID
Codec ID/Hint : XviD
Duration : 24mn 12s
Bit rate : 976 Kbps
Width : 640 pixels
Height : 480 pixels
Display aspect ratio : 4/3
Frame rate : 25.000 fps
Resolution : 24 bits
Colorimetry : 4:2:0
Scan type : Progressive
Bits/(Pixel*Frame) : 0.127
Stream size : 169 MiB (87%)
Writing library : XviD 1.0.3 (UTC 2004-12-20)

Format : MPEG Audio
Format version : Version 1
Format profile : Layer 3
Codec ID : 55
Codec ID/Hint : MP3
Duration : 24mn 12s
Bit rate mode : Variable
Bit rate : 135 Kbps
Nominal bit rate : 128 Kbps
Channel(s) : 2 channels
Sampling rate : 48.0 KHz
Resolution : 16 bits
Stream size : 23.5 MiB (12%)
Alignment : Aligned on interleaves
Interleave, duration : 24 ms (0.60 video frame)
Interleave, preload duration : 218 ms
Writing library : LAME3.90.
Encoding settings : ABR





[/SIZE]





===============================

Some of the other rather spiffing shows available now and always if you signup free @ www.TheBox.bz:

Comedy: The Office, Peep Show, Coupling, Chef, Fawlty Towers, Only Fools and Horses, The IT Crowd, Brass Eye, Nathan Barley, Young Ones, Monty Python, Blackadder, Alan Partridge, Father Ted, Coupling, Little Britain, Mr Bean, Extras, Green Wing, Mighty Boosh

Drama: Casualty, Holby City, The Bill, Hustle, Skins, Shameless, Ashes To Ashes

Entertainment: Faking It, Derren Brown, Scrapheap Challenge, Strictly Come Dancing, Wife Swap

Game/Quiz Shows: Whose Line Is It Anyway?, Have I Got News For You, Deal Or No Deal (UK), Q.I.

Education/Documentary: Planet Earth, Horizon, Panorama, Mark Thomas (Comedy) Product

Food: Hell's Kitchen, Jamie Oliver, The F Word, Kitchen Nightmares, Masterchef, Great British Menu, Gordon Ramsay's Cookalong

Home/Property/Garden: Property Ladder, How Clean Is Your House?, Changing Rooms, Grand Designs, Homes Under The Hammer, To Buy Or Not To Buy

Motoring: Top Gear, Fifth Gear

Music: Top Of The Pops, Jools Holland, Glastonbury

Reality: Big Brother, Celebrity Big Brother, I'm a Celebrity - Get Me Out of Here!, Any Dream Will Do, Grease, Pop Idol, Wife Swap, X Factor, Badger Or Bust, Apprentice UK, Dragons' Den, Britain's Got Talent

Sci-Fi: Doctor Who, Red Dwarf, Torchwood, Primeval

Sport: Football (Soccer), Cricket, Rugby, Snooker, Darts, Formula One (F1GP)

Soaps: Eastenders, Coronation Street, Emmerdale, Neighbours, Hollyoaks

Style/Fashion: What Not To Wear, Project Catwalk

Kids: Teletubbies, Blue Peter, Tikkabilla, Andy Pandy, Postman Pat, Shoebox Zoo, Brum, Bob The Builder, Young Dracula, Sarah Jane Adventures, Shaun The Sheep

related torrents

Torrent name

health leech seeds Size
 

comments (0)

Main Menu