UK

Classic Emmerdale (21st December 1995)[VHSRip (XVID)]

  • Download 5x Faster
  • Download torrent
  • Direct Download
  • Rate this torrent +  |  -
Classic Emmerdale (21st December 1995)[VHSRip (XVID)]

Free and Direct Download with Usenet.nl 300GB+ free


Torrent info

Name:Classic Emmerdale (21st December 1995)[VHSRip (XVID)]

Total Size: 194.63 MB

Magnet: Magnet Link

Seeds: 0

Leechers: 0

Stream: Watch Online @ Movie4u

Last Updated: 2015-09-10 08:53:18 (Update Now)

Torrent added: 2009-09-01 13:35:55





Torrent Files List


Classic Emmerdale 1995.12.21.TvRip.Xvid.(2037).Robinhood99.avi (Size: 194.63 MB) (Files: 1)

 Classic Emmerdale 1995.12.21.TvRip.Xvid.(2037).Robinhood99.avi

194.63 MB
 

tracker

leech seeds
 

Torrent description

This torrent was uploaded from www.TheBox.bz (signup is open and free) - the home of all British TV



Classic Emmerdale (21st  December 1995)[VHSRip (XVID)] preview 0


==ORIGINAL UK AIR DATEs:==
21st December 1995
Episode(S) 2037
==Description==
---------------------------------------------------------------------------------------------
[url]http://www.itnsource.com/shotlist//ITVProgs/1995/12/21/Y05242037/?s=emmerdale+2037[/url]

PART 1 - Frank is awake ; Chris & Kim seem to be vying for who is the most devoted visitor ; Linda is feeling suffocated at Betty's ; Rachel tells Sarah that they are having trouble tracking Zoe & Emma down in America ; she is surprised to see Kathy has spent the night at the farmhouse ; Dave shocks Biff by telling him that he actually loves Kim ; Frank cannot bring himself to speak to Kim ; Chris persuades her to go home & get some rest ; Sam is upset that Nellie & Zak have rushed off to Ireland ; he is worried that they won't be back for Christmas ; Tina points out that there is not alot to rush back for anyway ; Sam has made some decorations out of newspaper ; Kelly has removed all the Christmas puddings from the shelves of the shop because they contain animal suet ; Nick is annoyed with Kathy when she says that she is going to see Frank in hospital ; she tells him " this is my business, it's my flat, it's my life. If you don't like it you know what youcan do " ; Butch is amazed to find Tina & Sam in the middle of making a Christmas pudding ; Tina wants to do things for her mum ; Butch freaks out when he sees a man with an axe looking in through the window ; Tina opens the door & tries to get rid of him ; he turns out to be their Uncle Albert (Zak's brother) ; Rachel drops Joseph off at the Woolpack ; Terry seems to like looking after him ; Jan & Ned discuss Dave & Kathy breaking up ; Jan thinks that it is probably Kathy's fault ; Uncle Albert impresses Butch & Sam when he tells them that he has "been banged up at Her Majesty's
wotsit" for most of the last fifteen years ; Zak arrives
home & Albert doesn't quite get the welcome he hoped for -
Zak punches him.
PART 2 - Albert is out cold ; Zak calls him a disgrace ;
rehearsals are underway for the nativity play in the
village hall ; Kelly is helping Robert to learn his lines,
but Alice Bates seems to know them better than him ; Des
visits Frank ; he asks Frank how he is feeling & is
stunned to hear him say " I wish him up there had made a
proper job of it " ; he doesn't think that he has much to live for now that Kim has been disloyal to him ; Des
doesn't understand ; Kathy is packing up Dave's belongings
; she blames Nick's behaviour towards Dave for making him
want to run back to Kim ; as she is rowing with Nick, Frank
is telling Des about Kim's affair ; he admits that he feels
a broken man & feels betrayed by Dave " he's taken the one
thing I wanted for myself " ; Des gives him a bottle of
scotch ; the nativity play looks like it could be chaos ;
Zak is suspicious of Albert's motives for visiting ; Albert
tells him that he has got a bit of work that he could put
Zak's way ; Zak knows that it is not likely to be legal ;
the nativity play is underway ; Robert & Donna play Mary &
Joseph ; Roy has been roped into being the back end of the
donkey ; Betty is disgusted with the script which is rather
too modern for her liking, especially when the innkeeper
suggests that they try the holiday village for somewhere to
stay " I suppose the three kings will be coming on in
shellsuits " ; Butch & Sam overhear Albert talking on his
mobile phone ; he tells them that he has got a job he needs
help with ; Chris is surprised to see Kathy at the hospital
; Kim bitchily mentions the engagement being called off ; she tells Kathy that Dave is the father of her baby ; they
both go in to see Frank ; he is sad to hear of Kathy's
break up ; Kim keeps up the charade in front of Frank &
makes Kathy feel very uncomfortable.
---------------------------------------------------------------------------------------------




[SIZE=1]


Format : MPEG-4 Visual
Format profile : Streaming [email protected]
Format settings, BVOP : Yes
Format settings, QPel : No
Format settings, GMC : No warppoints
Format settings, Matrix : Default
Muxing mode : Packed bitstream
Codec ID : XVID
Codec ID/Hint : XviD
Duration : 24mn 33s
Bit rate : 960 Kbps
Width : 640 pixels
Height : 480 pixels
Display aspect ratio : 4/3
Frame rate : 25.000 fps
Resolution : 24 bits
Colorimetry : 4:2:0
Scan type : Progressive
Bits/(Pixel*Frame) : 0.125
Stream size : 169 MiB (87%)
Writing library : XviD 1.0.3 (UTC 2004-12-20)

Format : MPEG Audio
Format version : Version 1
Format profile : Layer 3
Codec ID : 55
Codec ID/Hint : MP3
Duration : 24mn 33s
Bit rate mode : Variable
Bit rate : 135 Kbps
Nominal bit rate : 128 Kbps
Channel(s) : 2 channels
Sampling rate : 48.0 KHz
Resolution : 16 bits
Stream size : 23.8 MiB (12%)
Alignment : Aligned on interleaves
Interleave, duration : 24 ms (0.60 video frame)
Interleave, preload duration : 136 ms
Writing library : LAME3.90.
Encoding settings : ABR



[/SIZE]


===============================

Some of the other rather spiffing shows available now and always if you signup free @ www.TheBox.bz:

Comedy: The Office, Peep Show, Coupling, Chef, Fawlty Towers, Only Fools and Horses, The IT Crowd, Brass Eye, Nathan Barley, Young Ones, Monty Python, Blackadder, Alan Partridge, Father Ted, Coupling, Little Britain, Mr Bean, Extras, Green Wing, Mighty Boosh

Drama: Casualty, Holby City, The Bill, Hustle, Skins, Shameless, Ashes To Ashes

Entertainment: Faking It, Derren Brown, Scrapheap Challenge, Strictly Come Dancing, Wife Swap

Game/Quiz Shows: Whose Line Is It Anyway?, Have I Got News For You, Deal Or No Deal (UK), Q.I.

Education/Documentary: Planet Earth, Horizon, Panorama, Mark Thomas (Comedy) Product

Food: Hell's Kitchen, Jamie Oliver, The F Word, Kitchen Nightmares, Masterchef, Great British Menu, Gordon Ramsay's Cookalong

Home/Property/Garden: Property Ladder, How Clean Is Your House?, Changing Rooms, Grand Designs, Homes Under The Hammer, To Buy Or Not To Buy

Motoring: Top Gear, Fifth Gear

Music: Top Of The Pops, Jools Holland, Glastonbury

Reality: Big Brother, Celebrity Big Brother, I'm a Celebrity - Get Me Out of Here!, Any Dream Will Do, Grease, Pop Idol, Wife Swap, X Factor, Badger Or Bust, Apprentice UK, Dragons' Den, Britain's Got Talent

Sci-Fi: Doctor Who, Red Dwarf, Torchwood, Primeval

Sport: Football (Soccer), Cricket, Rugby, Snooker, Darts, Formula One (F1GP)

Soaps: Eastenders, Coronation Street, Emmerdale, Neighbours, Hollyoaks

Style/Fashion: What Not To Wear, Project Catwalk

Kids: Teletubbies, Blue Peter, Tikkabilla, Andy Pandy, Postman Pat, Shoebox Zoo, Brum, Bob The Builder, Young Dracula, Sarah Jane Adventures, Shaun The Sheep

related torrents

Torrent name

health leech seeds Size
 

comments (0)

Main Menu