UK

Classic Emmerdale (19th December 1995)[VHSRip (XVID)]

  • Download 5x Faster
  • Download torrent
  • Direct Download
  • Rate this torrent +  |  -
Classic Emmerdale (19th December 1995)[VHSRip (XVID)]

Anonymous and Free Direct Download


Torrent info

Name:Classic Emmerdale (19th December 1995)[VHSRip (XVID)]

Total Size: 194.65 MB

Magnet: Magnet Link

Seeds: 3

Leechers: 0

Stream: Watch Online @ Movie4u

Last Updated: 2010-08-07 20:43:02 (Update Now)

Torrent added: 2009-09-01 13:35:53



VPN For Torrents

Torrent Files List


Classic Emmerdale 1995.12.19.TvRip.Xvid.(2036).Robinhood99.avi (Size: 194.65 MB) (Files: 1)

 Classic Emmerdale 1995.12.19.TvRip.Xvid.(2036).Robinhood99.avi

194.65 MB
 

Announce URL: http://www.thebox.bz:2710/00000000000000000000000000000000/announce

Torrent description

This torrent was uploaded from www.TheBox.bz (signup is open and free) - the home of all British TV



Classic Emmerdale (19th  December 1995)[VHSRip (XVID)] preview 0


==ORIGINAL UK AIR DATEs:==
19th December 1995
Episode(S) 2036
==Description==
---------------------------------------------------------------------------------------------
[url]http://www.itnsource.com/shotlist//ITVProgs/1995/12/19/Y05242036/?s=emmerdale+2036[/url]

Kim & Dave have spent the night together ; he suddenly feels guilty being in Frank's bed ; Kim has rung the hospital & there is no change in Frank's condition ; she tells Dave that he is the only thing keeping her sane ; Kathy is upset after witnessing Kim & Dave together ; even little Alice cannot cheer her up ; Jan starts to think about Christmas in the Glover household " no sign of Linda, Dave off with Kathy & us two stuck with a brain washed zombie & a plate of flippin' vegetables "; Jack is trying on his wings for the nativity play ; Chris & Rachel visit Frank in hospital ; Chris tells him that they are doing their best to contact Zoe in America ; he feels bitter because Kim has not bothered to visit ; Dave asks Kim when she became pregnant ; she tells him that it was the night after Nick's accident " now I know, I couldn't stand by & watch Frank play the doting father " he tells her ; he has a confrontation with Biff when he realises that Dave has spent the night with Kim ; Eric is not in the Christmas spirit yet ; Viv is almost tempted to invite him to spend Christmas with them - almost ; Seth tells Jan that Dave has been a tower of strength to Kim " his car was outside that house at half past six this morning " ; Jan looks puzzled as she obviously thought that Dave had spent the night with Kathy ; Terry puts mistletoe up above the Woolpack door ; Linda has decided to stop speaking to her mum " if we're not speaking, we're not rowing either " ; Jan is heartbroken ; Dave & Biff nearly come to blows when Dave accuses Biff
of being a hypocrite, after all he two timed Jessica with
Sadie ; Kathy arrives & asks Dave where he was on the
previous night ; he lies ; she gives him his ring back &
tells him that she knows he was with Kim " I hope you'll
both be very happy, god knows you deserve each other ".
PART 2 - Kim & Chris have an angry confrontation over
Frank's hospital bed ; Chris accuses Kim of not caring
about Frank ; she tells him rather bitchily that Frank is
hoping for a son " I think he wants to get it right this
time " ; in the middle of this row, Frank regains consciousness ; Jack & Sarah are preparing for the nativity
play ; Kathy turns up in a hysterical state ; she tells
Sarah that she has finished with Dave & that she feels so
used " he didn't even fight for me " ; Dave is upset about
Kathy ; Biff thinks that he is just sorry that he has lost
two women, but he is shocked when Dave tells him that Kim
is actually having his baby ; his sympathies lie with Frank
; the doctor tells Kim & Chris that Frank is getting better
; he must not drink again, though ; Jan is furious with Ned
for going to see Linda ; she blames him for her refusing to
speak to them ; Roy seizes the opportunity to ask if he can
give Linda's Christmas present (perfume ) to Kelly ; Dave
then tells them that his engagement to Kathy is off ; Kim
tries to phone Dave ; Nellie & Zak are enjoying themselves
in the Woolpack ; Tina comes in & tells Nellie that her
sister, Noola has phoned - Grandad Lynch (her father ) has
had a stroke & he is dying ; Linda suggests to Biff that
they get a place of their own ; Dave tracks Kathy down at
the Sugdens farm ; she tells him to get lost " I bet she's
even told you that it's your baby " she says.

---------------------------------------------------------------------------------------------




[SIZE=1]

Format : MPEG-4 Visual
Format profile : Streaming [email protected]
Format settings, BVOP : Yes
Format settings, QPel : No
Format settings, GMC : No warppoints
Format settings, Matrix : Default
Muxing mode : Packed bitstream
Codec ID : XVID
Codec ID/Hint : XviD
Duration : 24mn 27s
Bit rate : 964 Kbps
Width : 640 pixels
Height : 480 pixels
Display aspect ratio : 4/3
Frame rate : 25.000 fps
Resolution : 24 bits
Colorimetry : 4:2:0
Scan type : Progressive
Bits/(Pixel*Frame) : 0.125
Stream size : 169 MiB (87%)
Writing library : XviD 1.0.3 (UTC 2004-12-20)

Format : MPEG Audio
Format version : Version 1
Format profile : Layer 3
Codec ID : 55
Codec ID/Hint : MP3
Duration : 24mn 27s
Bit rate mode : Variable
Bit rate : 136 Kbps
Nominal bit rate : 128 Kbps
Channel(s) : 2 channels
Sampling rate : 48.0 KHz
Resolution : 16 bits
Stream size : 23.8 MiB (12%)
Alignment : Aligned on interleaves
Interleave, duration : 24 ms (0.60 video frame)
Interleave, preload duration : 135 ms
Writing library : LAME3.90.
Encoding settings : ABR



[/SIZE]


===============================

Some of the other rather spiffing shows available now and always if you signup free @ www.TheBox.bz:

Comedy: The Office, Peep Show, Coupling, Chef, Fawlty Towers, Only Fools and Horses, The IT Crowd, Brass Eye, Nathan Barley, Young Ones, Monty Python, Blackadder, Alan Partridge, Father Ted, Coupling, Little Britain, Mr Bean, Extras, Green Wing, Mighty Boosh

Drama: Casualty, Holby City, The Bill, Hustle, Skins, Shameless, Ashes To Ashes

Entertainment: Faking It, Derren Brown, Scrapheap Challenge, Strictly Come Dancing, Wife Swap

Game/Quiz Shows: Whose Line Is It Anyway?, Have I Got News For You, Deal Or No Deal (UK), Q.I.

Education/Documentary: Planet Earth, Horizon, Panorama, Mark Thomas (Comedy) Product

Food: Hell's Kitchen, Jamie Oliver, The F Word, Kitchen Nightmares, Masterchef, Great British Menu, Gordon Ramsay's Cookalong

Home/Property/Garden: Property Ladder, How Clean Is Your House?, Changing Rooms, Grand Designs, Homes Under The Hammer, To Buy Or Not To Buy

Motoring: Top Gear, Fifth Gear

Music: Top Of The Pops, Jools Holland, Glastonbury

Reality: Big Brother, Celebrity Big Brother, I'm a Celebrity - Get Me Out of Here!, Any Dream Will Do, Grease, Pop Idol, Wife Swap, X Factor, Badger Or Bust, Apprentice UK, Dragons' Den, Britain's Got Talent

Sci-Fi: Doctor Who, Red Dwarf, Torchwood, Primeval

Sport: Football (Soccer), Cricket, Rugby, Snooker, Darts, Formula One (F1GP)

Soaps: Eastenders, Coronation Street, Emmerdale, Neighbours, Hollyoaks

Style/Fashion: What Not To Wear, Project Catwalk

Kids: Teletubbies, Blue Peter, Tikkabilla, Andy Pandy, Postman Pat, Shoebox Zoo, Brum, Bob The Builder, Young Dracula, Sarah Jane Adventures, Shaun The Sheep

related torrents

Torrent name

health leech seeds Size
 


comments (0)

Main Menu