UK

Classic Emmerdale (14th December 1995)[VHSRip (XVID)]

  • Download 5x Faster
  • Download torrent
  • Direct Download
  • Rate this torrent +  |  -
Classic Emmerdale (14th December 1995)[VHSRip (XVID)]

Free and Direct Download with Usenet.nl 300GB+ free


Torrent info

Name:Classic Emmerdale (14th December 1995)[VHSRip (XVID)]

Total Size: 194.92 MB

Magnet: Magnet Link

Seeds: 3

Leechers: 0

Stream: Watch Online @ Movie4u

Last Updated: 2010-10-01 08:07:14 (Update Now)

Torrent added: 2009-09-01 13:35:49





Torrent Files List


Classic Emmerdale 1995.12.14.TvRip.Xvid.(2035).Robinhood99.avi (Size: 194.92 MB) (Files: 1)

 Classic Emmerdale 1995.12.14.TvRip.Xvid.(2035).Robinhood99.avi

194.92 MB
 

Announce URL: http://www.thebox.bz:2710/00000000000000000000000000000000/announce

Torrent description

This torrent was uploaded from www.TheBox.bz (signup is open and free) - the home of all British TV



Classic Emmerdale (14th  December 1995)[VHSRip (XVID)] preview 0


==ORIGINAL UK AIR DATEs:==
14th December 1995
Episode(S) 2035
==Description==
---------------------------------------------------------------------------------------------
[url]http://www.itnsource.com/shotlist//ITVProgs/1995/12/14/Y05242035/?s=emmerdale+2035[/url]


EPISODE 2035
Synopsis: PART 1 - it is the morning after the party ; Dave walks into the marquee ; the debris from the night before is strewn all over ; he finds the flowers given by Frank to Kim ; the message reads 'To Kim - who has given me everything'; Seth tells Biff not to worry about hurrying to work as there will be no one there to bother about their timekeeping ; Kim is by Frank's bedside ; he is unconscious; the doctor tells her that Frank is suffering from Myocarditis & that his liver failed during the night due to a massive intake of alcohol ; he tells her rather ironically" if you hadn't acted so promptly administering his medication, I don't think he would be with us now "; Kelly has a go at Vic for supplying the drink at Frank's party ; he is more worried about when they will get paid for it ; Jack & Ned wonder why Frank started drinking when he seemed so happy ; Betty is nattering on about "poor Frank ", but Nick & Kathy do not share her sympathy ; Sarah calls round to Mill Cottage to ask about Frank, but Chris is unaware that his father has been taken ill ; Kim has not bothered to phone him ; Biff warns Dave to keep away from Kim ; Terry & ric talk about Christmas ; Terry says that he is going tovisit Britt, but Eric will be spending the day alone ; Sam invites Eric to spend the Christmas day with the Dingles " you'll have a belting time with us " ; Eric refuses, rather ungratefully ; Betty thinks that Kathy is upset because she is no longer close to Kim ; she couldn't be further from the truth, but Kathy is not about to tell Betty what is really
the matter ; Nellie is disappointed to hear that Eric has
turned down Sam's invitation to join them at Christmas ; she
blames Zak for frightening him off ; Sam tells her that
actually Eric was worried that she would beat him at arm
wrestling ; Biff & Dave fall out as Biff suddenly realises
that Dave's affair with Kim has never really ended ; Kim is
annoyed to see Chris at the hospital ; she tells the nurse
that Chris is Frank's 'estranged son' ; she then announces
that she is pregnant.
PART 2 - Chris doesn't want to believe that Kim is pregnant ; Rachel now feels guilty for preventing Frank from seeing
his grandson ; Ned calls to see Linda at the surgery ; she
is offhand with him & he is unable to make his peace ; Kim
arrives home from the hospital ; she asks Dave to call in &
see her later ; Biff walks off in disgust ; Sarah is busy
finishing writing the nativity play ; Robert teases her
because she is taking so long ; Dave arrives to speak to
Kathy ; they end up rowing & he accuses her of being
obsessed with Kim Tate ; Chris spends some time alone with
Frank ; he cries as he apologises to his unconscious father
; Rachel admits to Alan that she has behaved no better than
Frank really ; Kathy calls into the Woolpack looking for
Dave, but he isn't there ; Terry phones Britt ; she
obviously does not want to see him over Christmas ; Dave is
at Home Farm ; Kim is in a negligee ; she tells him that
she can't feel sad about Frank because she feels so much
for Dave ; Kathy tries to phone Dave at home ; Dave admits
to Kim that he is shocked by his own behaviour ; he loves
Kathy, but he can't stop seeing Kim ; she tells him that he
is the father of her child ; they kiss passionately in
front of the window, not realising that Kathy is parked outside watching them ; she cries.

---------------------------------------------------------------------------------------------




[SIZE=1]

Format : MPEG-4 Visual
Format profile : Streaming [email protected]
Format settings, BVOP : Yes
Format settings, QPel : No
Format settings, GMC : No warppoints
Format settings, Matrix : Default
Muxing mode : Packed bitstream
Codec ID : XVID
Codec ID/Hint : XviD
Duration : 24mn 17s
Bit rate : 973 Kbps
Width : 640 pixels
Height : 480 pixels
Display aspect ratio : 4/3
Frame rate : 25.000 fps
Resolution : 24 bits
Colorimetry : 4:2:0
Scan type : Progressive
Bits/(Pixel*Frame) : 0.127
Stream size : 169 MiB (87%)
Writing library : XviD 1.0.3 (UTC 2004-12-20)

Format : MPEG Audio
Format version : Version 1
Format profile : Layer 3
Codec ID : 55
Codec ID/Hint : MP3
Duration : 24mn 17s
Bit rate mode : Variable
Bit rate : 135 Kbps
Nominal bit rate : 128 Kbps
Channel(s) : 2 channels
Sampling rate : 48.0 KHz
Resolution : 16 bits
Stream size : 23.5 MiB (12%)
Alignment : Aligned on interleaves
Interleave, duration : 24 ms (0.60 video frame)
Interleave, preload duration : 255 ms
Writing library : LAME3.90.
Encoding settings : ABR



[/SIZE]



===============================

Some of the other rather spiffing shows available now and always if you signup free @ www.TheBox.bz:

Comedy: The Office, Peep Show, Coupling, Chef, Fawlty Towers, Only Fools and Horses, The IT Crowd, Brass Eye, Nathan Barley, Young Ones, Monty Python, Blackadder, Alan Partridge, Father Ted, Coupling, Little Britain, Mr Bean, Extras, Green Wing, Mighty Boosh

Drama: Casualty, Holby City, The Bill, Hustle, Skins, Shameless, Ashes To Ashes

Entertainment: Faking It, Derren Brown, Scrapheap Challenge, Strictly Come Dancing, Wife Swap

Game/Quiz Shows: Whose Line Is It Anyway?, Have I Got News For You, Deal Or No Deal (UK), Q.I.

Education/Documentary: Planet Earth, Horizon, Panorama, Mark Thomas (Comedy) Product

Food: Hell's Kitchen, Jamie Oliver, The F Word, Kitchen Nightmares, Masterchef, Great British Menu, Gordon Ramsay's Cookalong

Home/Property/Garden: Property Ladder, How Clean Is Your House?, Changing Rooms, Grand Designs, Homes Under The Hammer, To Buy Or Not To Buy

Motoring: Top Gear, Fifth Gear

Music: Top Of The Pops, Jools Holland, Glastonbury

Reality: Big Brother, Celebrity Big Brother, I'm a Celebrity - Get Me Out of Here!, Any Dream Will Do, Grease, Pop Idol, Wife Swap, X Factor, Badger Or Bust, Apprentice UK, Dragons' Den, Britain's Got Talent

Sci-Fi: Doctor Who, Red Dwarf, Torchwood, Primeval

Sport: Football (Soccer), Cricket, Rugby, Snooker, Darts, Formula One (F1GP)

Soaps: Eastenders, Coronation Street, Emmerdale, Neighbours, Hollyoaks

Style/Fashion: What Not To Wear, Project Catwalk

Kids: Teletubbies, Blue Peter, Tikkabilla, Andy Pandy, Postman Pat, Shoebox Zoo, Brum, Bob The Builder, Young Dracula, Sarah Jane Adventures, Shaun The Sheep

related torrents

Torrent name

health leech seeds Size
 

comments (0)

Main Menu