Documentary

Freedom or Fascism The Time to Choose(2006)DVD XviD

  • Download 5x Faster
  • Download torrent
  • Direct Download
  • Rate this torrent +  |  -
Freedom or Fascism The Time to Choose(2006)DVD XviD

Anonymous and free Direct Download 300GB+


Torrent info

Name:Freedom or Fascism The Time to Choose(2006)DVD XviD

Total Size: 2.29 GB

Magnet: Magnet Link

Seeds: 0

Leechers: 0

Stream: Watch Online @ Movie4u

Last Updated: 2015-09-10 17:16:20 (Update Now)

Torrent added: 2009-09-01 13:16:57



VPN For Torrents

Torrent Files List


David.Icke.Freedom.or.Fascism.CD1.[1e5df206].mp4 (Size: 2.29 GB) (Files: 3)

 David.Icke.Freedom.or.Fascism.CD1.[1e5df206].mp4

782.95 MB

 David.Icke.Freedom.or.Fascism.CD2.[0fe8e90c].mp4

782.65 MB

 David.Icke.Freedom.or.Fascism.CD3.[069850da].mp4

783.87 MB
 

tracker

leech seeds
 

Torrent description

http://www.davidicke.com/dvd/


Freedom or Fascism: The Time to Choose (2006)


David Icke Live - London 2006

6 May 2006. More than 2000 people from all over Britain and across the world
gather at London's famous Brixton Academy to witness an extraordinary event.
David Icke weaves together more than 16 years of painstaking research and
determined investigation into the Global Conspiracy and the extraordinary "sting"
being perpetrated on an amnesic human race.
Icke is the Dot Connector and he uses hundreds of illustrations to reveal the
hidden story behind apparently unconnected world events.


This information will show you:

* Who controls us and their history
* How they do it without being seen
* Why they do it and what they take from us
* How much worse they intend to make the world
* How to break free from their control

The "War On Terror" Is Fake

Icke exposes the real background to 9/11 and the government manufactured "war
on terror" and what it's really for.
Icke presents an extraordinary explanation of why "reality" is only an
illusion and how you can change it for the better.
This is a life-changing experience, a truly stunning, high quality production
from the world's foremost "conspiracy" writer and researcher of truth.

-----------------------------------------------------------------------

Media Info: [from MediaInfo v0.7.11]
General
Complete name : David.Icke.Freedom.or.Fascism.CD1.[1e5df206].mp4
Format : MPEG-4
Format profile : Nero Digital Standard Profile
Codec ID : ndss
File size : 783 MiB
Duration : 2h 24mn
Overall bit rate : 756 Kbps
Encoded date : UTC 2006-12-01 07:33:37
Tagged date : UTC 2006-12-01 08:21:32

Video
ID : 1
Format : MPEG-4 Visual
Format profile : Streaming Video_L1
Format settings, BVOP : Yes
Format settings, QPel : No
Format settings, GMC : No warppoints
Format settings, Matrix : Default
Codec ID : 20
Duration : 2h 24mn
Bit rate mode : Variable
Bit rate : 669 Kbps
Maximum bit rate : 3 238 Kbps
Width : 512 pixels
Height : 288 pixels
Display aspect ratio : 16/9
Frame rate mode : Constant
Frame rate : 25.000 fps
Resolution : 24 bits
Colorimetry : 4:2:0
Scan type : Progressive
Bits/(Pixel*Frame) : 0.182
Stream size : 693 MiB (89%)
Writing library : em4v 4.1.6.5
Encoded date : UTC 2006-12-01 07:33:37
Tagged date : UTC 2006-12-01 08:21:32

Audio
ID : 2
Format : AAC
Format/Info : Advanced Audio Codec
Format version : Version 4
Format profile : LC
Format settings, SBR : No
Codec ID : 40
Duration : 2h 24mn
Bit rate mode : Variable
Bit rate : 80.6 Kbps
Maximum bit rate : 124 Kbps
Channel(s) : 2 channels
Channel positions : L R
Sampling rate : 44.1 KHz
Resolution : 16 bits
Stream size : 83.5 MiB (11%)
Encoded date : UTC 2006-12-01 07:33:37
Tagged date : UTC 2006-12-01 08:21:32

Chapters
1 : 00:00:00.000 - Chapter 1
2 : 00:11:36.320 - Chapter 2
3 : 00:21:50.720 - Chapter 3
4 : 00:30:02.240 - Chapter 4
5 : 00:40:57.600 - Chapter 5
6 : 00:51:52.960 - Chapter 6
7 : 01:00:04.480 - Chapter 7
8 : 01:10:59.840 - Chapter 8
9 : 01:21:55.200 - Chapter 9
10 : 01:30:06.720 - Chapter 10
11 : 01:41:02.080 - Chapter 11
12 : 01:51:57.440 - Chapter 12
13 : 02:00:08.960 - Chapter 13
14 : 02:11:04.320 - Chapter 14
15 : 02:24:49.920 - Chapter 15

-----------------------------------------------------------------------

CRC32: [Lupas Rename v5.0]
1e5df206 David.Icke.Freedom.or.Fascism.CD1.[1e5df206].mp4
0fe8e90c David.Icke.Freedom.or.Fascism.CD2.[0fe8e90c].mp4
069850da David.Icke.Freedom.or.Fascism.CD3.[069850da].mp4

-----------------------------------------------------------------------

Codecs:
Download K-Lite Mega Codec Pack (http://www.free-codecs.com/download/K_Lite_Mega_Codec_Pack.htm)

Media players:
Download Media Player Classic (http://www.free-codecs.com/download/Media_Player_Classic.htm)
Download KMPlayer (http://www.free-codecs.com/download/KMPlayer.htm)
Download Gom Player (http://www.free-codecs.com/download/Gom_Player.htm)

related torrents

Torrent name

health leech seeds Size
 


comments (0)

Main Menu