Documentary

Earth HD 720p h264 by MurtDoc®

  • Download 5x Faster
  • Download torrent
  • Direct Download
  • Rate this torrent +  |  -
Earth HD 720p h264 by MurtDoc®

Free and Direct Download with Usenet.nl 300GB+ free


Torrent info

Name:Earth HD 720p h264 by MurtDoc®

Total Size: 3.87 GB

Magnet: Magnet Link

Seeds: 0

Leechers: 0

Stream: Watch Online @ Movie4u

Last Updated: 2011-01-01 19:53:35 (Update Now)

Torrent added: 2009-09-01 12:16:46





Torrent Files List


Earth - HD - DVD Case.jpg (Size: 3.87 GB) (Files: 3)

 Earth - HD - DVD Case.jpg

3.59 MB

 Earth - HD - DVD.jpg

1.98 MB

 Earth - HD. HD 720p.h264 by MurtDoc®.avi

3.87 GB
 

Announce URL: http://open.tracker.thepiratebay.org/announce

Torrent description

Earth - HD 720p h264 by MurtDoc®

Info :
Format/Info : Audio Video Interleave
Format profile : OpenDML
File size : 3.87 GiB
Duration : 1h 39mn
Overall bit rate : 5 584 Kbps

Video
Format : MPEG-4 Visual
Format settings, BVOP : Yes
Format settings, QPel : No
Format settings, GMC : No warppoints
Format settings, Matrix : Default
Codec ID : DX50
Codec ID/Hint : DivX 5
Duration : 1h 39mn
Bit rate : 5 131 Kbps
Width : 1 280 pixels
Height : 720 pixels
Display aspect ratio : 16/9
Frame rate : 23.976 fps
Resolution : 24 bits
Colorimetry : 4:2:0
Scan type : Progressive
Bits/(Pixel*Frame) : 0.232
Stream size : 3.55 GiB (92%)
Writing library : DivX 6.8.0 (UTC 2007-12-04)

Audio
Format : AC-3
Format/Info : Audio Coding 3
Codec ID : 2000
Bit rate mode : Constant
Bit rate : 448 Kbps
Channel(s) : 6 channels
Channel positions : Front: L C R, Surround: L R, LFE
Sampling rate : 48.0 KHz
Stream size : 318 MiB (8%)
Alignment : Aligned on interleaves
Interleave, duration : 64 ms (1.53 video frames)
Interleave, preload duration : 192 ms
Title : Earth - HD 720p.h264 by MurtDoc®

related torrents

Torrent name

health leech seeds Size
 

comments (0)

Main Menu