Documentary

DISCOVERY CHANNEL HOW DO THEY DO IT Silicon Chips [abo shreek11]

  • Download 5x Faster
  • Download torrent
  • Direct Download
  • Rate this torrent +  |  -
DISCOVERY CHANNEL HOW DO THEY DO IT Silicon Chips [abo shreek11]

Anonymous and Direct Download 300GB+ free


Torrent info

Name:DISCOVERY CHANNEL HOW DO THEY DO IT Silicon Chips [abo shreek11]

Total Size: 203.65 MB

Magnet: Magnet Link

Seeds: 0

Leechers: 0

Stream: Watch Online @ Movie4u

Last Updated: 2010-10-05 23:13:03 (Update Now)

Torrent added: 2009-09-01 11:46:43




Torrent Files List


DISCOVERY CHANNEL - HOW DO THEY DO IT - Silicon Chips [abo_shreek11].avi (Size: 203.65 MB) (Files: 2)

 DISCOVERY CHANNEL - HOW DO THEY DO IT - Silicon Chips [abo_shreek11].avi

203.65 MB

 DISCOVERY CHANNEL - HOW DO THEY DO IT - Silicon Chips [abo_shreek11].nfo

1.94 KB
 

Announce URL: http://open.tracker.thepiratebay.org/announce

Torrent description

General
Complete name : DISCOVERY CHANNEL - HOW DO THEY DO IT - Silicon Chips [abo_shreek11].avi
Recorded By : [email protected]
Format : AVI
Format/Info : Audio Video Interleave
File size : 204 MiB
Duration : 8mn 55s
Overall bit rate : 3 192 Kbps

Video
Format : MPEG-4 Visual
Format profile : [email protected]
Format settings, BVOP : Yes
Format settings, QPel : No
Format settings, GMC : No warppoints
Format settings, Matrix : Default
Codec ID : DX50
Codec ID/Hint : DivX 5
Duration : 8mn 55s
Bit rate : 2 923 Kbps
Width : 768 pixels
Height : 576 pixels
Display aspect ratio : 4/3
Frame rate : 25.000 fps
Resolution : 24 bits
Scan type : Progressive
Bits/(Pixel*Frame) : 0.264
Stream size : 186 MiB (92%)
Writing library : ivx5.3

Audio
Format : MPEG Audio
Format version : Version 1
Format profile : Layer 3
Codec ID : 55
Codec ID/Hint : MP3
Duration : 8mn 55s
Bit rate mode : Constant
Bit rate : 256 Kbps
Channel(s) : 2 channels
Sampling rate : 48.0 KHz
Resolution : 16 bits
Stream size : 16.3 MiB (8%)
Alignment : Aligned on interleaves
Interleave, duration : 24 ms (0.60 video frame)
Interleave, preload duration : 24 ms

The name explains itself. English with Arabic subtitle to enjoy Arab geeks.

related torrents

Torrent name

health leech seeds Size
 


comments (0)

Main Menu