TV - Other

90210 S01E01 FRENCH LD DVDRip XviD "VFF" ( Net)

  • Download 5x Faster
  • Download torrent
  • Direct Download
  • Rate this torrent +  |  -
90210 S01E01 FRENCH LD DVDRip XviD "VFF" ( Net)

Free and Direct Download with Usenet.nl 300GB+ free


Torrent info

Name:90210 S01E01 FRENCH LD DVDRip XviD "VFF" ( Net)

Total Size: 393.32 MB

Magnet: Magnet Link

Seeds: 0

Leechers: 0

Stream: Watch Online @ Movie4u

Last Updated: 2010-04-12 08:18:38 (Update Now)

Torrent added: 2009-09-01 11:07:23





Torrent Files List


90210.S01E01.FRENCH.LD.DVDRip.XviD-JMT.avi (Size: 393.32 MB) (Files: 2)

 90210.S01E01.FRENCH.LD.DVDRip.XviD-JMT.avi

393.32 MB

 90210.S01E01.FRENCH.LD.DVDRip.XviD-JMT.nfo

3.64 KB
 

Announce URL: http://www.quebec-team.net/announce.php

Torrent description

***ATTENTION***

Pour télécharger ce torrent, vous devez posséder un compte sur Quebec-Team ! et ensuite entrez votre passkey manuellement (http://www.quebec-team.net/announce.php?passkeyici) OU re-télécharger le torrent via le site. Merci!

***ATTENTION***

Lien d'origine : http://www.quebec-team.net/torrents/Serie-TV---FR/torrent/90210.S01E01.FRENCH.LD.DVDRip.XviD-_VFF_.html

[taille=24][aligner=centre]90210.S01E01.FRENCH.LD.DVDRip.XviD "VFF" [/aligner][/taille]




[aligner=centre]90210 S01E01 FRENCH LD DVDRip XviD "VFF" ( Net) preview 0[/aligner]

[aligner=centre]90210 S01E01 FRENCH LD DVDRip XviD "VFF" ( Net) preview 1[/aligner]

[aligner=centre]L'arrivée à Beverly Hills d'une famille avec deux enfants du même âge,
un garçon et une fille. Le père, Harry Wilson, est un ancien élève du lycée de Beverly Hills.
Il s'était installé à St Louis après avoir obtenu son diplôme. Le voilà forcé de revenir en
ville lorsque sa mère, une actrice sur le retour, sombre dans l'alcool. Il est accompagné de
son épouse, Debbie, une ancienne médaillée Olympique, leur fille Annie, ainsi que leur fils
adoptif Dixon. Les deux adolescents doivent s'intégrer dans leur nouvel environnement et s'y
faire des amis...


[/aligner]


[aligner=centre]90210 S01E01 FRENCH LD DVDRip XviD "VFF" ( Net) preview 2[/aligner]


[aligner=centre]
Origine de la serie : : Américaine
Titre original : Aucune information ...
Saison : 1
Episodes : 13
Top Série : 31ème
Statut : en production
Réalisateur : Aucune Information ...
Acteurs : Shenae Grimes, Tristan Wilds
Genre : Drame
Durée : 42
Date de diffusion : : 2 Septembre 2008

General
Complete name : C:UsersmavricDownloadsDark Floors [2009].TRUEFRENCH.DVDRIP.XVID.Up By BoubounDZ.avi90210.S01E01.FRENCH.LD.DVDRip.XviD-JMT90210.S01E01.FRENCH.LD.DVDRip.XviD-JMT.avi
Format : AVI
Format/Info : Audio Video Interleave
File size : 393 MiB
Duration : 40mn 33s
Overall bit rate : 1 356 Kbps
Writing application : MEncoder dev-SVN-r29417
Writing library : MPlayer

Video
ID : 0
Format : MPEG-4 Visual
Format profile : [email protected]
Format settings, BVOP : No
Format settings, QPel : No
Format settings, GMC : No warppoints
Format settings, Matrix : Default (H.263)
Codec ID : XVID
Codec ID/Hint : XviD
Duration : 40mn 33s
Bit rate : 1 190 Kbps
Width : 624 pixels
Height : 352 pixels
Display aspect ratio : 16:9
Frame rate : 25.000 fps
Resolution : 24 bits
Colorimetry : 4:2:0
Scan type : Progressive
Bits/(Pixel*Frame) : 0.217
Stream size : 345 MiB (88%)
Writing library : XviD 1.2.1 (UTC 2008-12-04)

Audio
ID : 1
Format : MPEG Audio
Format version : Version 1
Format profile : Layer 3
Codec ID : 55
Codec ID/Hint : MP3
Duration : 40mn 33s
Bit rate mode : Variable
Bit rate : 154 Kbps
Channel(s) : 2 channels
Sampling rate : 48.0 KHz
Resolution : 16 bits
Stream size : 44.5 MiB (11%)
Alignment : Aligned on interleaves
Interleave, duration : 24 ms (0.60 video frame)
Interleave, preload duration : 125 ms


[/aligner]

related torrents

Torrent name

health leech seeds Size
 

comments (0)

Main Menu