Documentary

Che The Bolivian Diary (1994) [h33t][snach14914]

  • Download 5x Faster
  • Download torrent
  • Direct Download
  • Rate this torrent +  |  -
Che The Bolivian Diary (1994) [h33t][snach14914]

Free and Direct Download with Usenet.nl 300GB+ free


Torrent info

Name:Che The Bolivian Diary (1994) [h33t][snach14914]

Total Size: 705.58 MB

Magnet: Magnet Link

Seeds: 0

Leechers: 0

Stream: Watch Online @ Movie4u

Last Updated: 2015-06-12 16:31:48 (Update Now)

Torrent added: 2009-09-01 10:42:14





Torrent Files List


Che.The.Bolivian.Diary.1994.DVDrip.xvid.mp3-snach.avi (Size: 705.58 MB) (Files: 4)

 Che.The.Bolivian.Diary.1994.DVDrip.xvid.mp3-snach.avi

705.58 MB

 INFO.txt

3.59 KB

 Torrent downloaded from Demonoid.com.txt

0.05 KB

 tracked_by_h33t_com.txt

0.02 KB
 

tracker

leech seeds
 

Torrent description

--this is my own dvd rip of this great documentary--SNACH--

Che: The Bolivian Diary (1994)


Program Info
Over 40 years ago, on October 9, 1967, Che Guevara was executed by the Bolivian
army, aided by the CIA. Guevara's diary, a detailed, personal account of his
futile 11-month attempt to foment revolution in Bolivia, is the basis of this
moving portrait. Che's relationship with the mysterious Tania, his betrayal by
local peasants, his constant battle with asthma and his distress at the death of
his comrades is recounted. Interviews with Bolivians who met Che during these
final days, coupled with narrations from Che's actual diaries, testify to a man
who embraced sacrifice for his ideals. This is an enlightening insight in the
real history of a revolutionary icon.

U.S./1994/Color/4:3/English, Spanish with English Subtitles

Directed by Richard Dindo, Produced by Cine-Manufacture, Les Films d'ici
Made in USA - alivemind.net - lorberhtdigital.com

"...a revealing glimpse in the revolutionary mindset."-Chicago Tribune
"...a compelling portrait."-Seattle Weekly


Video Info
Che.The.Bolivian.Diary.1994.DVDrip.xvid.mp3-snach.avi

Format : AVI
Format/Info : Audio Video Interleave
File size : 706 MiB
Duration : 1h 31mn
Overall bit rate : 1 081 Kbps
Movie name : BOLIVIAN_DIARY.Title1.DVDRip
Writing application : Lavf52.33.0
Original source form/Name : BOLIVIAN_DIARY

Video
ID : 0
Format : MPEG-4 Visual
Format profile : [email protected]
Format settings, BVOP : No
Format settings, QPel : No
Format settings, GMC : No warppoints
Format settings, Matrix : Default (H.263)
Codec ID : XVID
Codec ID/Hint : XviD
Duration : 1h 31mn
Bit rate : 939 Kbps
Width : 448 pixels
Height : 336 pixels
Display aspect ratio : 4/3
Frame rate : 29.970 fps
Resolution : 24 bits
Colorimetry : 4:2:0
Scan type : Progressive
Bits/(Pixel*Frame) : 0.208
Stream size : 613 MiB (87%)
Writing library : XviD 1.2.1 (UTC 2008-12-04)

Audio
ID : 1
Format : MPEG Audio
Format version : Version 1
Format profile : Layer 3
Codec ID : 55
Codec ID/Hint : MP3
Duration : 1h 31mn
Bit rate mode : Constant
Bit rate : 128 Kbps
Channel(s) : 2 channels
Sampling rate : 48.0 KHz
Resolution : 16 bits
Stream size : 83.6 MiB (12%)
Alignment : Aligned on interleaves
Interleave, duration : 24 ms (0.72 video frame)
Writing library : LAME3.98.2


Trackers
http://tracker.conspiracycentral.net/announce
http://www.h33t.com:3310/announce
http://inferno.demonoid.com:3417/announce
http://tracker.thepiratebay.org/announce
http://tracker.openbittorrent.com/announce

Visit & Join us at:
http://ConspiracyCentral.net

related torrents

Torrent name

health leech seeds Size
 

comments (0)

Main Menu