Other

Dispatches Why Kids Kill Eng Subtitles x264 mp4

  • Download 5x Faster
  • Download torrent
  • Direct Download
  • Rate this torrent +  |  -
Dispatches Why Kids Kill Eng Subtitles x264 mp4

Free and Direct Download with Usenet.nl 300GB+ free


Torrent info

Name:Dispatches Why Kids Kill Eng Subtitles x264 mp4

Total Size: 700.07 MB

Magnet: Magnet Link

Seeds: 0

Leechers: 0

Stream: Watch Online @ Movie4u

Last Updated: 2010-02-09 12:27:04 (Update Now)

Torrent added: 2009-09-01 10:33:04





Torrent Files List


Dispatches Why Kids Kill Eng Subtitles x264.mp4 (Size: 700.07 MB) (Files: 1)

 Dispatches Why Kids Kill Eng Subtitles x264.mp4

700.07 MB
 

Announce URL: http://open.tracker.thepiratebay.org/announce

Torrent description


Dispatches Why Kids Kill Eng Subtitles

To play with VLC player
http://vlc-media-player.org/modules/telecharge/visit.php?cid=1&lid=5

______________________________________________________________________________
General
Complete name : C:\Dispatches Why Kids Kill Eng Subtitles x264.mp4
Format : MPEG-4
Format profile : Base Media
Codec ID : isom
File size : 700 MiB
Duration : 53mn 54s
Overall bit rate : 1 815 Kbps
Encoded date : UTC 2008-11-24 03:15:39
Tagged date : UTC 2008-11-24 03:15:39
_____________________________________________________________________________
Video
Format : AVC
Format/Info : Advanced Video Codec
Format profile : [email protected]
Format settings, CABAC : Yes
Format settings, ReFrames : 1 frame
Codec ID : avc1
Codec ID/Info : Advanced Video Coding
Duration : 53mn 54s
Bit rate mode : Variable
Bit rate : 1 689 Kbps
Maximum bit rate : 4 469 Kbps
Width : 720 pixels
Height : 576 pixels
Display aspect ratio : 5/4
Frame rate mode : Constant
Frame rate : 25.000 fps
Standard : PAL
Resolution : 24 bits
Colorimetry : 4:2:0
Scan type : Progressive
Bits/(Pixel*Frame) : 0.163
Stream size : 651 MiB (93%)
Writing library : x264 core 65 r1029M cb3c213
Encoding settings : cabac=1 / ref=1 / deblock=1:0:0 / analyse=0x1:0x111 / me=hex / subme=6 / psy_rd=1.0:0.0 / mixed_ref=0 / me_range=16 / chroma_me=1 / trellis=0 / 8x8dct=0 / cqm=0 / deadzone=21,11 / chroma_qp_offset=-2 / threads=3 / nr=0 / decimate=1 / mbaff=0 / bframes=0 / keyint=250 / keyint_min=25 / scenecut=40(pre) / rc=2pass / bitrate=1689 / ratetol=1.0 / qcomp=0.60 / qpmin=10 / qpmax=51 / qpstep=4 / cplxblur=20.0 / qblur=0.5 / ip_ratio=1.40 / aq=1:1.00
Encoded date : UTC 2008-11-24 03:15:39
Tagged date : UTC 2008-11-24 03:16:44
______________________________________________________________________________
Audio
Format : AAC
Format/Info : Advanced Audio Codec
Format version : Version 4
Format profile : LC
Format settings, SBR : No
Codec ID : 40
Duration : 53mn 54s
Bit rate mode : Variable
Bit rate : 124 Kbps
Maximum bit rate : 189 Kbps
Channel(s) : 2 channels
Channel positions : L R
Sampling rate : 48.0 KHz
Resolution : 16 bits
Stream size : 47.8 MiB (7%)
Encoded date : UTC 2008-11-24 03:16:33
Tagged date : UTC 2008-11-24 03:16:44
______________________________________________________________________________

related torrents

Torrent name

health leech seeds Size
 

comments (0)

Main Menu