Documentary

Bresson's Mouchette Special Features DVDRip x264

  • Download 5x Faster
  • Download torrent
  • Direct Download
  • Rate this torrent +  |  -
Bresson's Mouchette Special Features DVDRip x264

Anonymous and Free Direct Download 300GB+


Torrent info

Name:Bresson's Mouchette Special Features DVDRip x264

Total Size: 349.78 MB

Magnet: Magnet Link

Seeds: 0

Leechers: 0

Stream: Watch Online @ Movie4u

Last Updated: 2010-08-02 15:00:58 (Update Now)

Torrent added: 2009-09-01 10:21:45



VPN For Torrents

Torrent Files List


[SF].Mouchette.DVDRip.x264.mkv (Size: 349.78 MB) (Files: 1)

 [SF].Mouchette.DVDRip.x264.mkv

349.78 MB
 

Announce URL: http://tracker.thepiratebay.org:80/announce

Torrent description

Notice: make sure your PC can play x264 encodes.

- Au hasard Bresson, a half-hour documentary about the director, including behind-the-scenes footage of Robert Bresson directing Mouchette
- “Traveling”, a segment from the cine-magazine TV series Cinéma, featuring on-set interviews with Bresson and actors Nadine Nortier and Jean-Claude Guilbert
- Original theatrical trailer, cut by Jean-Luc Godard

Source: The Criterion Collection

French audio, English subtitles

General
Format : Matroska
File size : 350 MiB
Duration : 40mn 21s
Overall bit rate : 1 212 Kbps
Encoded date : UTC 2009-06-28 08:37:49
Writing application : mkvmerge v2.9.5 ('Tu es le seul') built on Jun 7 2009 11:07:07
Writing library : libebml v0.7.7 + libmatroska v0.8.1

Video
ID : 3
Format : AVC
Format/Info : Advanced Video Codec
Format profile : [email protected]
Format settings, CABAC : Yes
Format settings, ReFrames : 8 frames
Muxing mode : Container [email protected]
Codec ID : V_MPEG4/ISO/AVC
Duration : 40mn 19s
Bit rate : 995 Kbps
Nominal bit rate : 1 016 Kbps
Width : 672 pixels
Height : 448 pixels
Display aspect ratio : 1.500
Frame rate : 23.976 fps
Resolution : 24 bits
Colorimetry : 4:2:0
Scan type : Progressive
Bits/(Pixel*Frame) : 0.138
Stream size : 287 MiB (82%)
Writing library : x264 core 67 r1173M f6d3166
Encoding settings : cabac=1 / ref=8 / deblock=1:0:0 / analyse=0x3:0x133 / me=umh / subme=7 / psy_rd=1.0:0.0 / mixed_ref=1 / me_range=16 / chroma_me=0 / trellis=2 / 8x8dct=1 / cqm=0 / deadzone=21,11 / chroma_qp_offset=-2 / threads=3 / nr=0 / decimate=0 / mbaff=0 / bframes=5 / b_pyramid=1 / b_adapt=2 / b_bias=0 / direct=3 / wpredb=1 / keyint=240 / keyint_min=24 / scenecut=40 / rc=2pass / bitrate=1016 / ratetol=1.0 / qcomp=0.60 / qpmin=10 / qpmax=51 / qpstep=4 / cplxblur=20.0 / qblur=0.5 / ip_ratio=1.40 / pb_ratio=1.30 / aq=1:1.00

Audio
ID : 2
Format : AC-3
Format/Info : Audio Coding 3
Codec ID : A_AC3
Duration : 40mn 21s
Bit rate mode : Constant
Bit rate : 192 Kbps
Channel(s) : 1 channel
Channel positions : C
Sampling rate : 48.0 KHz
Stream size : 55.4 MiB (16%)
Language : French

Text
ID : 1
Format : VobSub
Codec ID : S_VOBSUB
Codec ID/Info : The same subtitle format used on DVDs
Language : English

Menu
00:00:00.000 : fr:Trailer by Jean-Luc Godard
00:01:38.500 : fr:Cinema: "Travelling"
00:09:06.200 : fr:Au hasard Bresson

*********************************** FREAKYFLICKS ************************************

'If we all seed just 1:1, give at least what we take, this torrent will NEVER DIE'

related torrents

Torrent name

health leech seeds Size
 


comments (0)

Main Menu