Discovery Channel

Discovery Channel Cosmic Collisions Part1 HDTV XviD W4F[

  • Download 5x Faster
  • Download torrent
  • Direct Download
  • Rate this torrent +  |  -

Torrent info

Name:Discovery Channel Cosmic Collisions Part1 HDTV XviD W4F[

Total Size: 357.48 MB

Magnet: Magnet Link

Seeds: 0

Leechers: 0

Stream: Watch Full Movie @ Movie4u

Last Updated: 2015-05-21 16:45:47 (Update Now)

Torrent added: 2009-09-01 09:54:21



VPN For Torrents

Torrent Files List


cc.pt1.hdtv.xvid-w4f.r00 (Size: 357.48 MB) (Files: 28)

 cc.pt1.hdtv.xvid-w4f.r00

14.31 MB

 cc.pt1.hdtv.xvid-w4f.r01

14.31 MB

 cc.pt1.hdtv.xvid-w4f.r02

14.31 MB

 cc.pt1.hdtv.xvid-w4f.r03

14.31 MB

 cc.pt1.hdtv.xvid-w4f.r04

14.31 MB

 cc.pt1.hdtv.xvid-w4f.r05

14.31 MB

 cc.pt1.hdtv.xvid-w4f.r06

14.31 MB

 cc.pt1.hdtv.xvid-w4f.r07

14.31 MB

 cc.pt1.hdtv.xvid-w4f.r08

14.31 MB

 cc.pt1.hdtv.xvid-w4f.r09

14.31 MB

 cc.pt1.hdtv.xvid-w4f.r10

14.31 MB

 cc.pt1.hdtv.xvid-w4f.r11

14.31 MB

 cc.pt1.hdtv.xvid-w4f.r12

14.31 MB

 cc.pt1.hdtv.xvid-w4f.r13

14.31 MB

 cc.pt1.hdtv.xvid-w4f.r14

14.31 MB

 cc.pt1.hdtv.xvid-w4f.r15

14.31 MB

 cc.pt1.hdtv.xvid-w4f.r16

14.31 MB

 cc.pt1.hdtv.xvid-w4f.r17

14.31 MB

 cc.pt1.hdtv.xvid-w4f.r18

14.31 MB

 cc.pt1.hdtv.xvid-w4f.r19

14.31 MB

 cc.pt1.hdtv.xvid-w4f.r20

14.31 MB

 cc.pt1.hdtv.xvid-w4f.r21

14.31 MB

 cc.pt1.hdtv.xvid-w4f.r22

14.31 MB

 cc.pt1.hdtv.xvid-w4f.r23

6.98 MB

 cc.pt1.hdtv.xvid-w4f.rar

14.31 MB

 discovery.channel.cosmic.collisions.part1.hdtv.xvid-w4f.nfo

2.29 KB

 Discovery.Channel.Cosmic.Collisions.Part1.HDTV.XviD-W4F.sfv

2.63 KB

 Sample

  cc.pt1.hdtv.xvid-w4f-sample.avi

7.17 MB
 

tracker

leech seeds
 

Torrent description

Discovery.Channel.Cosmic.Collisions.Part1.HDTV.XviD-W4F

[DATE]: 01/30/2009


Description: This three-part series should be of interest to anyone
who is familiar with Asteroid impacts, galaxies colliding, gamma-ray bursts,
etc.



Algemeen
Volledige naam : L:\Torrent Schijf\10 - Docu's\Discovery.Channel.Cosmic.Collisions.Part1.HDTV.XviD-W4F\cc.pt1.hdtv.xvid-w4f.avi
Formaat : AVI
Formaat/Info : Audio Video Interleave
Bestandsgrootte : 350 MiB
Duration : 43mn 33s
Totale bitrate : 1125 Kbps
Gebruikt programma : Nandub v1.0rc2
Gebruikte encoder-bibliotheek : Nandub build 1852/release

Video
Formaat : MPEG-4 Visual
Format profile : Streaming [email protected]
Format settings, BVOP : Ja
Format settings, QPel : Nee
Format settings, GMC : No warpoints
Format settings, Matrix : Default
Codec ID : XVID
Codec ID/Hint : XviD
Duration : 43mn 33s
Bitrate : 986 Kbps
Breedte : 624 pixels
Hoogte : 352 pixels
Beeldverhouding : 16/9
Framerate : 29.970 fps
Resolutie : 8 bits
Colorimetry : 4:2:0
Scan type : Progressive
Bits/(Pixel*Frame) : 0.150
Stream size : 307 MiB
Gebruikte encoder-bibliotheek : XviD 50

Audio
Formaat : MPEG Audio
Format version : Version 1
Format profile : Layer 3
Codec ID : 55
Codec ID/Hint : MP3
Duration : 43mn 33s
Bitrate-modus : Variable
Bitrate : 124 Kbps
Minimum bit rate : 128 Kbps
Kanaal(en) : 2 kanalen
Samplerate : 48.0 KHz
Resolutie : 16 bits
Stream size : 38.7 MiB
Gebruikte encoder-bibliotheek : LAME3.97
Instellingen codering : ABR

related torrents

Torrent name

health leech seeds Size
 


comments (0)

Main Menu

 

script data-cfasync="false" src="//d2ghscazvn398x.cloudfront.net/?cshgd=690275">