Documentary

ayrton senna THE RIGHT TO WIN DVD RIP

  • Download 5x Faster
  • Download torrent
  • Direct Download
  • Rate this torrent +  |  -
ayrton senna THE RIGHT TO WIN DVD RIP

Free and Direct Download with Usenet.nl 300GB+ free


Torrent info

Name:ayrton senna THE RIGHT TO WIN DVD RIP

Total Size: 699.92 MB

Magnet: Magnet Link

Seeds: 0

Leechers: 0

Stream: Watch Online @ Movie4u

Last Updated: 0000-00-00 00:00:00 (Update Now)

Torrent added: 2009-09-01 09:24:56





Torrent Files List


ayrton senna THE RIGHT TO WIN.avi (Size: 699.92 MB) (Files: 1)

 ayrton senna THE RIGHT TO WIN.avi

699.92 MB
 

Announce URL:

Torrent description

General
Complete name : D:\\ayrton senna THE RIGHT TO WIN.avi
Format : AVI
Format/Info : Audio Video Interleave
File size : 700 MiB
Duration : 49mn 56s
Overal bit rate : 1959 Kbps
Writing application : FairUse Wizard
Writing library : The best and REALLY easy backup tool

Video
Format : MPEG-4 Visual
Format profile : Streaming [email protected]
Format settings, BVOP : Yes
Format settings, QPel : No
Format settings, GMC : No warppoints
Format settings, Matrix : Default
Muxing mode : Packet Bitstream
Codec ID : XVID
Codec ID/Hint : XviD
Duration : 49mn 56s
Bit rate : 1822 Kbps
Width : 720 pixels
Height : 512 pixels
Display aspect ratio : 1.406
Frame rate : 25.000 fps
Resolution : 8 bits
Colorimetry : 4:2:0
Scan type : Progressive
Bits/(Pixel*Frame) : 0.198
Stream size : 651 MiB
Writing library : XviD 1.2.0.dev47 (UTC 2006-11-01)

Audio
Format : MPEG Audio
Format version : Version 1
Format profile : Layer 3
Codec ID : 55
Codec ID/Hint : MP3
Duration : 49mn 56s
Bit rate mode : Constant
Bit rate : 128 Kbps
Channel(s) : 2 channels
Sampling rate : 48.0 KHz
Resolution : 16 bits
Stream size : 45.7 MiB

OFFICIAL AYRTON SENNA INSTITUTO DVD
ENJOY AND PLEASE SEED
GBABIS 2008

related torrents

Torrent name

health leech seeds Size
 

comments (0)

Main Menu