TV Shows

Aziz Yildirim %100 Futbol

  • Download 5x Faster
  • Download torrent
  • Direct Download
  • Rate this torrent +  |  -
Aziz Yildirim %100 Futbol

Anonymous and Free Direct Download 300GB+


Torrent info

Name:Aziz Yildirim %100 Futbol

Total Size: 523.17 MB

Magnet: Magnet Link

Seeds: 0

Leechers: 0

Stream: Watch Online @ Movie4u

Last Updated: 2009-12-11 23:05:46 (Update Now)

Torrent added: 2009-06-10 06:00:01



VPN For Torrents

Torrent Files List


 

Announce URL: http://www.torrentsnipe.info:2701/announce

Torrent description

Format : AVI

Format/Info : Audio Video Interleave

Overall bit rate : 967 Kbps

Director : created.with.SUPER(C).v2009.bld.35

Writing application : SUPER(C) - by eRightSoft

Video

Format : AVC

Format/Info : Advanced Video Codec

Format profile : [email protected]

Format settings, CABAC : Yes

Format settings, ReFrames : 1 frame

Codec ID : H264

Bit rate : 827 Kbps

Width : 360 pixels

Height : 288 pixels

Display aspect ratio : 4/3

Frame rate : 25.000 fps

Resolution : 24 bits

Colorimetry : 4:2:0

Scan type : Progressive

Bits/(Pixel*Frame) : 0.319

Stream size : 150 MiB (85%)

Writing library : SUPER(C) by eRightSoft

Audio

Format : MPEG Audio

Format version : Version 1

Format profile : Layer 3

Codec ID : 55

Codec ID/Hint : MP3

Bit rate mode : Constant

Bit rate : 128 Kbps

Channel(s) : 2 channels

Sampling rate : 44.1 KHz

Resolution : 16 bits

Stream size : 23.2 MiB (13%)

Alignment : Aligned on interleaves

Interleave, duration : 26 ms (0.65 video frame)

Interleave, preload duration : 522 ms