Documentary

American Pit Bull Killer Canine Or Family Friend 2007 DVDRip DOCU XVID

  • Download 5x Faster
  • Download torrent
  • Direct Download
  • Rate this torrent +  |  -

Torrent info

Name:American Pit Bull Killer Canine Or Family Friend 2007 DVDRip DOCU XVID

Total Size: 699.78 MB

Magnet: Magnet Link

Seeds: 0

Leechers: 0

Stream: Watch Online @ Movie4u

Last Updated: 2011-02-21 03:36:42 (Update Now)

Torrent added: 2009-09-01 09:02:11




Torrent Files List


American.Pit.Bull.Killer.Canine.Or.Family.Friend.2007.DVDRip.DOCU.XVID.avi (Size: 699.78 MB) (Files: 2)

 American.Pit.Bull.Killer.Canine.Or.Family.Friend.2007.DVDRip.DOCU.XVID.avi

699.78 MB

 nfo.nfo

1.88 KB
 

Announce URL:

Torrent description

General
Vollstndiger Name : American.Pit.Bull.Killer.Canine.Or.Family.Friend.2007.DVDRip.DOCU.XVID.avi
Format : AVI
Format/Info : Audio Video Interleave
Dateigre : 700 MiB
Duration : 1h 3min
Gesamte Bitrate : 1533 Kbps
Verwendetes Programm : VirtualDubMod 1.5.10.2 (build 2540/release)
verwendete Encoder-Bibliothek : VirtualDubMod build 2540/release

Video
Format : MPEG-4 Visual
Format profile : Streaming [email protected]
Format settings, BVOP : Yes
Format settings, QPel : No
Format settings, GMC : 0 warppoint
Format settings, Matrix : Default
Muxing mode : Packet Bitstream
Codec ID : XVID
Codec ID/Hint : XviD
Duration : 1h 3min
Bitrate : 1329 Kbps
Breite : 624 Pixel
Hhe : 352 Pixel
Bildseitenverhltnis : 16/9
Bildwiederholungsrate : 29.970 FPS
Auflsung : 8 bits
Colorimetry : 4:2:0
Scan type : Progressive
Bits/(Pixel*Frame) : 0.202
Stream size : 607 MiB
verwendete Encoder-Bibliothek : XviD0050

Audio
Format : AC-3
Format/Info : Audio Coding 3
Codec ID : 2000
Duration : 1h 3min
Bitraten-Modus : CBR
Bitrate : 192 Kbps
Kanle : 2 Kanle
Channel positions : L R
Samplingrate : 48.0 KHz
Stream size : 87.6 MiB

related torrents

Torrent name

health leech seeds Size
 


comments (0)

Main Menu