Documentary

Akira Kurosawa: It Is Wonderful to Create (making of Sanjuro) DVDRip x264

  • Download 5x Faster
  • Download torrent
  • Direct Download
  • Rate this torrent +  |  -
Akira Kurosawa: It Is Wonderful to Create (making of Sanjuro) DVDRip x264

Free and Direct Download with Usenet.nl 300GB+ free


Torrent info

Name:Akira Kurosawa: It Is Wonderful to Create (making of Sanjuro) DVDRip x264

Total Size: 348.05 MB

Magnet: Magnet Link

Seeds: 0

Leechers: 0

Stream: Watch Online @ Movie4u

Last Updated: 2010-07-28 19:14:38 (Update Now)

Torrent added: 2009-09-01 08:40:14





Torrent Files List


WTC.Sanjuro.DVDRip.x264.Jpn.Subs.mkv (Size: 348.05 MB) (Files: 1)

 WTC.Sanjuro.DVDRip.x264.Jpn.Subs.mkv

348.05 MB
 

Announce URL: http://tracker.thepiratebay.org:80/announce

Torrent description

Notice: make sure your PC can play x264 encodes.

Plot: A 35-minute documentary on the making of Sanjuro, created as part of the Toho Masterworks series Akira Kurosawa: It Is Wonderful to Create

Source: The Criterion Collection

Japanese audio, English subs

General
Format : Matroska
File size : 348 MiB
Duration : 34mn 46s
Overall bit rate : 1 399 Kbps
Encoded date : UTC 2009-06-24 12:32:00
Writing application : mkvmerge v2.9.5 ('Tu es le seul') built on Jun 7 2009 11:07:07
Writing library : libebml v0.7.7 + libmatroska v0.8.1

Video
ID : 3
Format : AVC
Format/Info : Advanced Video Codec
Format profile : [email protected]
Format settings, CABAC : Yes
Format settings, ReFrames : 8 frames
Muxing mode : Container [email protected]
Codec ID : V_MPEG4/ISO/AVC
Duration : 34mn 44s
Bit rate : 1 178 Kbps
Nominal bit rate : 1 202 Kbps
Width : 704 pixels
Height : 464 pixels
Display aspect ratio : 1.375
Frame rate : 29.970 fps
Resolution : 24 bits
Colorimetry : 4:2:0
Scan type : Progressive
Bits/(Pixel*Frame) : 0.120
Stream size : 293 MiB (84%)
Writing library : x264 core 67 r1169M ab85c9b
Encoding settings : cabac=1 / ref=8 / deblock=1:0:0 / analyse=0x3:0x133 / me=umh / subme=7 / psy_rd=1.0:0.0 / mixed_ref=1 / me_range=16 / chroma_me=0 / trellis=2 / 8x8dct=1 / cqm=0 / deadzone=21,11 / chroma_qp_offset=-2 / threads=3 / nr=0 / decimate=0 / mbaff=0 / bframes=5 / b_pyramid=1 / b_adapt=2 / b_bias=0 / direct=3 / wpredb=1 / keyint=250 / keyint_min=25 / scenecut=40 / rc=2pass / bitrate=1202 / ratetol=1.0 / qcomp=0.60 / qpmin=10 / qpmax=51 / qpstep=4 / cplxblur=20.0 / qblur=0.5 / ip_ratio=1.40 / pb_ratio=1.30 / aq=1:1.00

Audio
ID : 1
Format : AC-3
Format/Info : Audio Coding 3
Codec ID : A_AC3
Duration : 34mn 46s
Bit rate mode : Constant
Bit rate : 192 Kbps
Channel(s) : 2 channels
Channel positions : L R
Sampling rate : 48.0 KHz
Stream size : 47.8 MiB (14%)
Language : Japanese

Text
ID : 2
Format : VobSub
Codec ID : S_VOBSUB
Codec ID/Info : The same subtitle format used on DVDs
Language : English

*********************************** FREAKYFLICKS ************************************

'If we all seed just 1:1, give at least what we take, this torrent will NEVER DIE'

related torrents

Torrent name

health leech seeds Size
 

comments (0)

Main Menu