Documentary

Africa The Serengeti 1994 German AC3 DL 1080p Bluray

  • Download 5x Faster
  • Download torrent
  • Direct Download
  • Rate this torrent +  |  -
Africa The Serengeti 1994 German AC3 DL 1080p Bluray

Anonymous and Direct Download 300GB+ free


Torrent info

Name:Africa The Serengeti 1994 German AC3 DL 1080p Bluray

Total Size: 3.55 GB

Magnet: Magnet Link

Seeds: 0

Leechers: 0

Stream: Watch Online @ Movie4u

Last Updated: 2015-09-06 21:51:40 (Update Now)

Torrent added: 2009-09-01 08:36:56




Torrent Files List


Africa.The.Serengeti.1994.German.AC3.DL.1080p.Bluray.DXVA-Eater.mkv (Size: 3.55 GB) (Files: 2)

 Africa.The.Serengeti.1994.German.AC3.DL.1080p.Bluray.DXVA-Eater.mkv

3.55 GB

 mediainfo.txt

3.92 KB
 

tracker

leech seeds
 

Torrent description

Africa.The.Serengeti.1994.German.AC3.DL.1080p.Bluray.DXVA-Eater.mkv
Format : Matroska
File size : 3.55 GiB
Duration : 39mn 22s
Overall bit rate : 12.9 Mbps
Encoded date : UTC 2009-04-10 11:29:24
Writing application : mkvmerge v2.6.0 ('Kelly watch the Stars') built on Mar 24 2009 15:23:17
Writing library : libebml v0.7.7 + libmatroska v0.8.1

Video
ID : 1
Format : AVC
Format/Info : Advanced Video Codec
Format profile : [email protected]
Format settings, CABAC : Yes
Format settings, ReFrames : 4 frames
Muxing mode : Container [email protected]
Codec ID : V_MPEG4/ISO/AVC
Duration : 39mn 22s
Bit rate : 11.7 Mbps
Nominal bit rate : 12.0 Mbps
Width : 1 912 pixels
Height : 1 076 pixels
Display aspect ratio : 16/9
Frame rate : 24.000 fps
Resolution : 24 bits
Colorimetry : 4:2:0
Scan type : Progressive
Bits/(Pixel*Frame) : 0.238
Stream size : 3.23 GiB (91)

Language : English

Audio #1
ID : 2
Format : AC-3
Format/Info : Audio Coding 3
Codec ID : A_AC3
Duration : 39mn 22s
Bit rate mode : Constant
Bit rate : 448 Kbps
Channel(s) : 6 channels
Channel positions : Front: L C R, Surround: L R, LFE
Sampling rate : 48.0 KHz
Stream size : 126 MiB (3)
Language : English

Audio #2
ID : 3
Format : AC-3
Format/Info : Audio Coding 3
Codec ID : A_AC3
Duration : 39mn 22s
Bit rate mode : Constant
Bit rate : 448 Kbps
Channel(s) : 6 channels
Channel positions : Front: L C R, Surround: L R, LFE
Sampling rate : 48.0 KHz
Stream size : 126 MiB (3)
Language : German

related torrents

Torrent name

health leech seeds Size
 


comments (0)

Main Menu