Comedy

Y Tu mama Tambien 2001 UNRATED DVDRip XviD HUNSUB UnSeeN

  • Download 5x Faster
  • Download torrent
  • Direct Download
  • Rate this torrent +  |  -
Y Tu mama Tambien 2001 UNRATED DVDRip XviD HUNSUB UnSeeN

Free and Direct Download with Usenet.nl 300GB+ free


Torrent info

Name:Y Tu mama Tambien 2001 UNRATED DVDRip XviD HUNSUB UnSeeN

Total Size: 1.45 GB

Magnet: Magnet Link

Seeds: 6

Leechers: 4

Stream: Watch Online @ Movie4u

Last Updated: 2010-12-30 17:41:38 (Update Now)

Torrent added: 2009-09-01 08:21:14





Torrent Files List


Y.Tu.mama.Tambien.2001.UNRATED.DVDRip.XviD-UnSeeN.avi (Size: 1.45 GB) (Files: 2)

 Y.Tu.mama.Tambien.2001.UNRATED.DVDRip.XviD-UnSeeN.avi

1.45 GB

 Y.Tu.mama.Tambien.2001.UNRATED.DVDRip.XviD-UnSeeN.srt

89.42 KB
 

Announce URL: http://denis.stalker.h3q.com:6969/announce

Torrent description

Original UnSeeN release with Hungarian subtitle.

Y tu mamá también (2001)

http://www.imdb.com/title/tt0245574/

Directed by: Alfonso Cuarón

Genre: Drama

Tagline: La vida tiene sus maneras de enseñarnos. La vida tiene sus maneras de confundirnos. La vida tiene sus maneras de cambiarnos. La vida tiene sus maneras de asombrarnos. La vida tiene sus maneras de herirnos. La vida tiene sus maneras de curarnos. La vida tiene sus maneras de inspirarnos.

Plot Outline: Abandoned by their girlfriends for the summer, teenagers Tenoch and Julio meet the older Luisa at a wedding. Trying to be impressive, the friends tell Luisa they are headed on a road trip to a beautiful, secret beach called Boca del Cielo. Intrigued with their story and desperate to escape, Luisa asks if she can join them on their trip. Soon the three are headed out of Mexico City, making their way toward the fictional destination. Along the way, seduction, argument and the contrast of the trio against the harsh realities of the surrounding poverty ensue.

IMDB Rating: 7.8/10

Cast overview:
Ana López Mercado ... Ana Morelos
Diego Luna ... Tenoch Iturbide
Gael García Bernal ... Julio Zapata
Nathan Grinberg ... Manuel Huerta
Verónica Langer ... María Eugenia Calles de Huerta
María Aura ... Cecilia Huerta
Giselle Audirac ... Nicole Bazaine
Arturo Ríos ... Esteban Morelos
Andrés Almeida ... Diego \\\'Saba\\\' Madero
Diana Bracho ... Silvia Allende de Iturbide
Emilio Echevarría ... Miguel Iturbide
Marta Aura ... Enriqueta \\\'Queta\\\' Allende
Maribel Verdú ... Luisa Cortés
Juan Carlos Remolina ... Alejandro \\\'Jano\\\' Montes de Oca
Liboria Rodríguez ... Leodegaria \\\'Leo\\\' Victoria

Quality information:

Format : AVI
Format/Info : Audio Video Interleave
File size : 1.45 GiB
Duration : 1h 45mn
Overall bit rate : 1 965 Kbps
Writing application : VirtualDubMod 1.5.10.2 (build 2540/release)
Writing library : VirtualDubMod build 2540/release

Video
Format : MPEG-4 Visual
Format profile : Streaming [email protected]
Format settings, BVOP : Yes
Format settings, QPel : No
Format settings, GMC : No warppoints
Format settings, Matrix : Custom
Codec ID : XVID
Codec ID/Hint : XviD
Duration : 1h 45mn
Bit rate : 1 511 Kbps
Width : 704 pixels
Height : 384 pixels
Display aspect ratio : 16/9
Frame rate : 23.976 fps
Resolution : 24 bits
Colorimetry : 4:2:0
Scan type : Progressive
Bits/(Pixel*Frame) : 0.233
Stream size : 1.12 GiB (77%)
Writing library : XviD 1.1.2 (UTC 2006-11-01)

Audio
Format : AC-3
Format/Info : Audio Coding 3
Codec ID : 2000
Duration : 1h 45mn
Bit rate mode : Constant
Bit rate : 448 Kbps
Channel(s) : 6 channels
Channel positions : Front: L C R, Surround: L R, LFE
Sampling rate : 48.0 KHz
Stream size : 339 MiB (23%)
Alignment : Split accross interleaves
Interleave, duration : 96 ms (2.30 video frames)
Interleave, preload duration : 96 ms




related torrents

Torrent name

health leech seeds Size
 

comments (0)

Main Menu