Other

WINNIE THE POOH HEFFALUMP MOVIE BY KIDZCORNER IN H 264

  • Download 5x Faster
  • Download torrent
  • Direct Download
  • Rate this torrent +  |  -
WINNIE THE POOH HEFFALUMP MOVIE BY KIDZCORNER IN H 264

Anonymous and Free Direct Download 300GB+


Torrent info

Name:WINNIE THE POOH HEFFALUMP MOVIE BY KIDZCORNER IN H 264

Total Size: 701.60 MB

Magnet: Magnet Link

Seeds: 0

Leechers: 0

Stream: Watch Online @ Movie4u

Last Updated: 2014-02-16 03:45:10 (Update Now)

Torrent added: 2009-09-01 06:57:57



VPN For Torrents

Torrent Files List


wtpooh.mp4 (Size: 701.60 MB) (Files: 5)

 wtpooh.mp4

699.54 MB

 winnie_the_pooh_poohs_heffalump_movie_2005.jpg

1.71 MB

 winnie_the_pooh_poohs_heffalump_movie_2005 cd.jpg

358.54 KB

 kidzcorner info.txt

0.30 KB

 Torrent downloaded from Demonoid.com.txt

0.05 KB
 

Announce URL:

Torrent description

Fear and trepidation run throughout the Hundred Acre Woods when a strange noise, emanating from a Heffalump is heard. While Pooh, Tigger and friends are convinced the new arrival is an horrific beast and set off on a quest to capture him, Roo comes face to face with Lumpy the Heffalump and discovers that they couldn't be more wrong...

Format : MPEG-4
Format profile : Base Media / Version 2
Codec ID : mp42
File size : 700 MiB
Duration : 1h 5mn
Overall bit rate : 1 499 Kbps


Video
ID : 1
Format : AVC
Format/Info : Advanced Video Codec
Format profile : [email protected]
Format settings, CABAC : Yes
Format settings, ReFrames : 3 frames
Codec ID : avc1
Codec ID/Info : Advanced Video Coding
Duration : 1h 5mn
Bit rate mode : Variable
Bit rate : 1 336 Kbps
Width : 720 pixels
Height : 572 pixels
Display aspect ratio : 16/9
Frame rate mode : Variable
Frame rate : 25.000 fps
Minimum frame rate : 12.500 fps
Maximum frame rate : 25.000 fps
Resolution : 24 bits
Colorimetry : 4:2:0
Scan type : Progressive
Bits/(Pixel*Frame) : 0.130
Stream size : 623 MiB (89%)
Writing library : x264 core 65

Audio
ID : 2
Format : AAC
Format/Info : Advanced Audio Codec
Format version : Version 4
Format profile : LC
Format settings, SBR : No
Codec ID : 40
Duration : 1h 5mn
Bit rate mode : Variable
Bit rate : 159 Kbps
Maximum bit rate : 211 Kbps
Channel(s) : 2 channels
Channel positions : L R
Sampling rate : 48.0 KHz
Resolution : 16 bits
Stream size : 74.4 MiB (11%)
Language : English
Encoded date : UTC 2009-08-19 18:00:50
Tagged date : UTC 2009-08-19 20:08:49

related torrents

Torrent name

health leech seeds Size
 


comments (0)

Main Menu