Other

WALT DISNEYS TREASURE ISLAND[1950][DVDRIP][ENG] KIDZCORNER

  • Download 5x Faster
  • Download torrent
  • Direct Download
  • Rate this torrent +  |  -
WALT DISNEYS TREASURE ISLAND[1950][DVDRIP][ENG] KIDZCORNER

Anonymous and Free Direct Download 300GB+


Torrent info

Name:WALT DISNEYS TREASURE ISLAND[1950][DVDRIP][ENG] KIDZCORNER

Total Size: 881.20 MB

Magnet: Magnet Link

Seeds: 0

Leechers: 0

Stream: Watch Online @ Movie4u

Last Updated: 2011-07-27 16:34:15 (Update Now)

Torrent added: 2009-09-01 06:57:25



VPN For Torrents

Torrent Files List


TREASURE_ISLAND (Size: 881.20 MB) (Files: 4)

 TREASURE_ISLAND

  TITLE01.avi

881.15 MB

 0786936216103.jpg

19.84 KB

 front.jpg

29.21 KB

 Torrent downloaded from Demonoid.com.txt

0.05 KB
 

Announce URL: http://tracker.torrentbox.com:2710/announce

Torrent description


Description

In this swashbuckling, high-seas adventure, Walt Disney has vividly brought to life Robert Louis Stevenson's thrilling tale of buccaneers and buried gold - presented for the first time in its original, uncut theatrical version!
Authentic locales and musket-roaring action set the stage for the stouthearted heroics of young Jim Hawkins (Bobby Driscoll) and the skullduggery of that wily, one-legged pirate, Long John Silver.

General
Complete name : C:\Users\joker\Documents\WALT DISNEYS-TREASURE ISLAND[1950][DVDRIP][ENG]-KIDZCORNER\TREASURE_ISLAND\TITLE01.avi
Format : AVI
Format/Info : Audio Video Interleave
File size : 881 MiB
Duration : 1h 31mn
Overall bit rate : 1 340 Kbps

Video
Format : MPEG-4 Visual
Format profile : [email protected]
Format settings, BVOP : No
Format settings, QPel : No
Format settings, GMC : No warppoints
Format settings, Matrix : Default
Codec ID : XVID
Codec ID/Hint : XviD
Duration : 1h 31mn
Bit rate : 1 200 Kbps
Width : 640 pixels
Height : 480 pixels
Display aspect ratio : 4/3
Frame rate : 25.000 fps
Resolution : 24 bits
Colorimetry : 4:2:0
Scan type : Progressive
Bits/(Pixel*Frame) : 0.156
Stream size : 789 MiB (90%)
Writing library : Magic0432

Audio
Format : MPEG Audio
Format version : Version 1
Format profile : Layer 3
Codec ID : 55
Codec ID/Hint : MP3
Duration : 1h 31mn
Bit rate mode : Constant
Bit rate : 128 Kbps
Channel(s) : 2 channels
Sampling rate : 44.1 KHz
Resolution : 16 bits
Stream size : 84.2 MiB (10%)
Alignment : Aligned on interleaves
Interleave, duration : 26 ms (0.65 video frame)
Writing library : LAME3.97


related torrents

Torrent name

health leech seeds Size
 


comments (0)

Main Menu