Other

WALT DISNEYS MY FRIENDS TIGER&POOH FRIENDLY TAILS[DVDRIP][ENG] KIDZCORNE&J T R

  • Download 5x Faster
  • Download torrent
  • Direct Download
  • Rate this torrent +  |  -

Torrent info

Name:WALT DISNEYS MY FRIENDS TIGER&POOH FRIENDLY TAILS[DVDRIP][ENG] KIDZCORNE&J T R

Total Size: 663.00 MB

Magnet: Magnet Link

Seeds: 0

Leechers: 0

Stream: Watch Online @ Movie4u

Last Updated: 2011-04-30 03:46:57 (Update Now)

Torrent added: 2009-09-01 06:56:40



VPN For Torrents

Torrent Files List


MFTP_FRIENDLY_TALES_GBR (Size: 663.00 MB) (Files: 5)

 MFTP_FRIENDLY_TALES_GBR

  TITLE01.avi

662.94 MB

 849444_DV_L_B.JPG

34.57 KB

 849444_DV_L_F.JPG

27.52 KB

 Torrent downloaded from Demonoid.com-1.txt

0.05 KB

 Tracked by moviesb4time.biz.txt

1.35 KB
 

Announce URL: http://tracker.torrentbox.com:2710/announce

Torrent description

Hooray! It's a hunny-ful day; so put on your cap, hop on your scooter and join Pooh, Tigger, Darby and the whole gang as they laugh, play and discover fun new mysteries in the heart of the Hundred Acre Wood!

Any time there's a problem to solve or a riddle to unravel, the Super Sleuths are on it. Whether they're hunting for pirate treasure, hot on the trail of a missing puppy dog or curing a tigger-ific case of the hiccups, when they team up with You in search of adventure, just about anything is possible! Bursting with endless fun, delightful music and wonderful surprises, My Friends Tigger And Pooh: Friendly Tails celebrates the magic of friendship and the happiness that comes from helping others.

General
Complete name : C:\Users\joker\Documents\WALT DISNEYS-MY FRIENDS TIGER&POOH-FRIENDLY TAILS[DVDRIP][ENG]-KIDZCORNE&J.T.R\MFTP_FRIENDLY_TALES_GBR\TITLE01.avi
Format : AVI
Format/Info : Audio Video Interleave
File size : 663 MiB
Duration : 1h 9mn
Overall bit rate : 1 339 Kbps

Video
Format : MPEG-4 Visual
Format profile : [email protected]
Format settings, BVOP : No
Format settings, QPel : No
Format settings, GMC : No warppoints
Format settings, Matrix : Default
Codec ID : XVID
Codec ID/Hint : XviD
Duration : 1h 9mn
Bit rate : 1 199 Kbps
Width : 640 pixels
Height : 480 pixels
Display aspect ratio : 4/3
Frame rate : 25.000 fps
Resolution : 24 bits
Colorimetry : 4:2:0
Scan type : Progressive
Bits/(Pixel*Frame) : 0.156
Stream size : 593 MiB (90%)
Writing library : Magic0432

Audio
Format : MPEG Audio
Format version : Version 1
Format profile : Layer 3
Codec ID : 55
Codec ID/Hint : MP3
Duration : 1h 9mn
Bit rate mode : Constant
Bit rate : 128 Kbps
Channel(s) : 2 channels
Sampling rate : 44.1 KHz
Resolution : 16 bits
Stream size : 63.4 MiB (10%)
Alignment : Aligned on interleaves
Interleave, duration : 26 ms (0.65 video frame)
Writing library : LAME3.97

related torrents

Torrent name

health leech seeds Size
 


comments (0)

Main Menu