Other

WALT DISNEYS MUPPET TREASURE ISLAND[DVDRIP][ENG] KIDZCORNER&J T R

  • Download 5x Faster
  • Download torrent
  • Direct Download
  • Rate this torrent +  |  -
WALT DISNEYS MUPPET TREASURE ISLAND[DVDRIP][ENG] KIDZCORNER&J T R

Free and Direct Download with Usenet 300GB+ free


Torrent info

Name:WALT DISNEYS MUPPET TREASURE ISLAND[DVDRIP][ENG] KIDZCORNER&J T R

Total Size: 699.52 MB

Magnet: Magnet Link

Seeds: 37

Leechers: 7

Stream: Watch Online @ Movie4u

Last Updated: 0000-00-00 00:00:00 (Update Now)

Torrent added: 2009-09-01 06:56:35




Torrent Files List


661802_DV_L_B.JPG (Size: 699.52 MB) (Files: 5)

 661802_DV_L_B.JPG

37.99 KB

 661802_DV_L_F.JPG

32.88 KB

 mupp.avi

699.45 MB

 Torrent downloaded from Demonoid.com-2.txt

0.05 KB

 Tracked by moviesb4time.biz.txt

1.35 KB
 

Announce URL: http://inferno.demonoid.com:3404/announce

Torrent description

Ahoy, matey! Get ready for hilarity on the high seas with Kermit the Frog, Miss Piggy and all the Muppets in their first-ever action adventure, inspired by Robert Louis Stevenson's classic pirate tale.

When young Jim Hawkins inherits a long-lost treasure map, he hires the great ship Hispaniola to seek his fortune. With the good Captain Smollett (Kermit the Frog) at the helm - and greedy Long John Silver (Tim Curry) at the heart of a dastardly plot - they set sail for adventure, only to discover danger at every turn.

Featuring a rollicking score by Academy Award winner Hans Zimmer, this fully restored and remastered MUPPETS 50th Anniversary Edition of MUPPET TREASURE ISLAND is a fun-packed, music-filled swashbuckler the entire family will enjoy over and over.


General
Complete name : C:\Users\joker\Documents\WALT DISNEYS-MUPPET TREASURE ISLAND[DVDRIP][ENG]-KIDZCORNER&J.T.R\mupp.avi
Format : AVI
Format/Info : Audio Video Interleave
File size : 699 MiB
Duration : 1h 35mn
Overall bit rate : 1 024 Kbps
Writing application : FairUse Wizard - http://fairusewizard.com
Writing library : The best and REALLY easy backup tool

Video
Format : MPEG-4 Visual
Format profile : Streaming [email protected]
Format settings, BVOP : Yes
Format settings, QPel : No
Format settings, GMC : No warppoints
Format settings, Matrix : Default
Muxing mode : Packed bitstream
Codec ID : XVID
Codec ID/Hint : XviD
Duration : 1h 35mn
Bit rate : 886 Kbps
Width : 608 pixels
Height : 320 pixels
Display aspect ratio : 1.900
Frame rate : 25.000 fps
Resolution : 24 bits
Colorimetry : 4:2:0
Scan type : Progressive
Bits/(Pixel*Frame) : 0.182
Stream size : 605 MiB (87%)
Writing library : XviD 1.2.0.dev47 (UTC 2006-11-01)

Audio
Format : MPEG Audio
Format version : Version 1
Format profile : Layer 3
Codec ID : 55
Codec ID/Hint : MP3
Duration : 1h 35mn
Bit rate mode : Constant
Bit rate : 128 Kbps
Minimum bit rate : 128 Kbps
Channel(s) : 2 channels
Sampling rate : 48.0 KHz
Resolution : 16 bits
Stream size : 87.5 MiB (13%)
Alignment : Aligned on interleaves
Interleave, duration : 40 ms (1.00 video frame)
Interleave, preload duration : 504 ms
Writing library : LAME3.97
Encoding settings : CBR

related torrents

Torrent name

health leech seeds Size
 

comments (0)

Main Menu