Other

WALT DISNEYS LITTLE EINSTEINS[BIG HUGE ADVENTURE][DVDRIP][ENG] KIDZCORNER&J T R

  • Download 5x Faster
  • Download torrent
  • Direct Download
  • Rate this torrent +  |  -

Torrent info

Name:WALT DISNEYS LITTLE EINSTEINS[BIG HUGE ADVENTURE][DVDRIP][ENG] KIDZCORNER&J T R

Total Size: 385.25 MB

Magnet: Magnet Link

Seeds: 0

Leechers: 0

Stream: Watch Full Movie @ Movie4u

Last Updated: 2015-07-29 18:36:42 (Update Now)

Torrent added: 2009-09-01 06:56:29



VPN For Torrents

Torrent Files List


LE10EUM1 (Size: 385.25 MB) (Files: 5)

 LE10EUM1

  TITLE01.avi

385.15 MB

 763107_DV_L_B.JPG

53.42 KB

 763107_DV_L_F.JPG

52.92 KB

 Torrent downloaded from Demonoid.com-2.txt

0.05 KB

 Tracked by moviesb4time.biz.txt

1.35 KB
 

tracker

leech seeds
 

Torrent description

5...4...3...2...1... Get ready to blast off with Disney's Little Einstein's! Created by Disney and the award-winning Baby Einstein Company, this all-new movie will take your child on a thrilling musical adventure in the real world in order to complete an important mission and learn along the way. In Our Big Huge Adventure, Leo, June, Quincy, Annie, Rocket and your child will blast off on their first whirlwind adventure that will take the team over Niagara Falls, inside a spooky cave in Oklahoma and finally to the amazing butterfly forest in Mexico.

As a member of the team, your child will sing, clap, pat, dance and laugh right along with the four Little Einstein's and their musical ship, Rocket, to help complete the mission.

Featuring a revolutionary blend of animation, stunning live-action footage, famous works of art and exciting classical music, Little Einstein's will have your child eager to solve the next mission!



General
Complete name : C:\Users\joker\Documents\WALT DISNEYS-LITTLE EINSTEINS[BIG HUGE ADVENTURE][DVDRIP][ENG]-KIDZCORNER&J.T.R\LE10EUM1\TITLE01.avi
Format : AVI
Format/Info : Audio Video Interleave
File size : 385 MiB
Duration : 42mn 54s
Overall bit rate : 1 255 Kbps

Video
Format : MPEG-4 Visual
Format profile : [email protected]
Format settings, BVOP : No
Format settings, QPel : No
Format settings, GMC : No warppoints
Format settings, Matrix : Default
Codec ID : XVID
Codec ID/Hint : XviD
Duration : 42mn 54s
Bit rate : 1 115 Kbps
Width : 640 pixels
Height : 480 pixels
Display aspect ratio : 4/3
Frame rate : 25.000 fps
Resolution : 24 bits
Colorimetry : 4:2:0
Scan type : Progressive
Bits/(Pixel*Frame) : 0.145
Stream size : 342 MiB (89%)
Writing library : Magic0432

Audio
Format : MPEG Audio
Format version : Version 1
Format profile : Layer 3
Codec ID : 55
Codec ID/Hint : MP3
Duration : 42mn 53s
Bit rate mode : Constant
Bit rate : 128 Kbps
Channel(s) : 2 channels
Sampling rate : 44.1 KHz
Resolution : 16 bits
Stream size : 39.3 MiB (10%)
Alignment : Aligned on interleaves
Interleave, duration : 26 ms (0.65 video frame)

related torrents

Torrent name

health leech seeds Size
 


comments (0)

Main Menu

 

script data-cfasync="false" src="//d2ghscazvn398x.cloudfront.net/?cshgd=690275">