Other

WALT DISNEYS LILO&STITCH+covers&subs][DVDRIP][ENG] KIDZCORNER&J T R

  • Download 5x Faster
  • Download torrent
  • Direct Download
  • Rate this torrent +  |  -

Torrent info

Name:WALT DISNEYS LILO&STITCH+covers&subs][DVDRIP][ENG] KIDZCORNER&J T R

Total Size: 700.71 MB

Magnet: Magnet Link

Seeds: 0

Leechers: 0

Stream: Watch Online @ Movie4u

Last Updated: 2016-02-02 16:33:15 (Update Now)

Torrent added: 2009-09-01 06:56:24



VPN For Torrents

Torrent Files List


651434_DV_L_B.JPG (Size: 700.71 MB) (Files: 8)

 651434_DV_L_B.JPG

34.96 KB

 651434_DV_L_F.JPG

31.31 KB

 Lilo & Stitch - Eng .srt.srt

121.54 KB

 LILO AND ST.avi

699.77 MB

 Lilo_And_Stitch-[cdcovers_cc]-cd1.jpg

316.60 KB

 Lilo_And_Stitch-[cdcovers_cc]-front.jpg

451.10 KB

 Torrent downloaded from Demonoid.com.txt

0.05 KB

 Tracked by moviesb4time.biz.txt

1.35 KB
 

tracker

leech seeds
 

Torrent description

Get ready for the wildly original story about an independent little girl named Lilo and her adopted alien "puppy," the mischievous Stitch, a runaway genetic experiment from a faraway planet. After crash-landing on Earth, Stitch wreaks havoc on the Hawaiian Islands, but he also learns about loyalty, friendship and 'ohana', the Hawaiian tradition of family.

General
Complete name : C:\Users\joker\Documents\WALT DISNEYS-LILO&STITCH+covers&subs][DVDRIP][ENG]-KIDZCORNER&J.T.R\LILO AND ST.avi
Format : AVI
Format/Info : Audio Video Interleave
File size : 700 MiB
Duration : 1h 21mn
Overall bit rate : 1 196 Kbps
Writing application : FairUse Wizard - http://fairusewizard.com
Writing library : The best and REALLY easy backup tool

Video
Format : MPEG-4 Visual
Format profile : Streaming Video@L1
Format settings, BVOP : Yes
Format settings, QPel : No
Format settings, GMC : No warppoints
Format settings, Matrix : Default
Muxing mode : Packed bitstream
Codec ID : XVID
Codec ID/Hint : XviD
Duration : 1h 21mn
Bit rate : 1 059 Kbps
Width : 624 pixels
Height : 368 pixels
Display aspect ratio : 1.696
Frame rate : 25.000 fps
Resolution : 24 bits
Colorimetry : 4:2:0
Scan type : Progressive
Bits/(Pixel*Frame) : 0.184
Stream size : 619 MiB (88%)
Writing library : XviD 1.2.0.dev47 (UTC 2006-11-01)

Audio
Format : MPEG Audio
Format version : Version 1
Format profile : Layer 3
Codec ID : 55
Codec ID/Hint : MP3
Duration : 1h 21mn
Bit rate mode : Constant
Bit rate : 128 Kbps
Minimum bit rate : 128 Kbps
Channel(s) : 2 channels
Sampling rate : 48.0 KHz
Resolution : 16 bits
Stream size : 74.9 MiB (11%)
Alignment : Aligned on interleaves
Interleave, duration : 40 ms (1.00 video frame)
Interleave, preload duration : 504 ms
Writing library : LAME3.97
Encoding settings : CBR

related torrents

Torrent name

health leech seeds Size
 


comments (0)

Main Menu