Other

WALT DISNEYS LILO&STITCH 2[STITCH HAS A GLITCH]covers&subs[DVDRIP][ENG] KIDZCORNER&J T R

  • Download 5x Faster
  • Download torrent
  • Direct Download
  • Rate this torrent +  |  -

Torrent info

Name:WALT DISNEYS LILO&STITCH 2[STITCH HAS A GLITCH]covers&subs[DVDRIP][ENG] KIDZCORNER&J T R

Total Size: 700.55 MB

Magnet: Magnet Link

Seeds: 0

Leechers: 0

Stream: Watch Online @ Movie4u

Last Updated: 0000-00-00 00:00:00 (Update Now)

Torrent added: 2009-09-01 06:56:19



VPN For Torrents

Torrent Files List


648603_DV_L_B.JPG (Size: 700.55 MB) (Files: 8)

 648603_DV_L_B.JPG

29.41 KB

 648603_DV_L_F.JPG

30.11 KB

 Lilo & Stitch 2 - Stitch Has a Glitch (2005) .srt.srt

53.06 KB

 LILO2.avi

699.83 MB

 Lilo_And_Stitch_2-[cdcovers_cc]-cd1.jpg

170.60 KB

 Lilo_And_Stitch_2-[cdcovers_cc]-front.jpg

452.28 KB

 Torrent downloaded from Demonoid.com-1.txt

0.05 KB

 Tracked by moviesb4time.biz.txt

1.35 KB
 

Announce URL:

Torrent description

The unforgettable story of Stitch and Lilo continues in Disney's hilarious all-new movie LILO & STITCH 2. Your favorite characters return in this heartwarming comedy about bringing friends and family together even when they seem worlds apart.

Before all 626 experiments land in Hawaii, Stitch is living the good life. He helps Lilo follow in the footsteps of her mother as she prepares for the big island hula contest. Life seems perfect, but when Stitch gets a glitch, their world goes haywire. Now it's going to take Lilo, Nani, Jumba and a whole lotta "Ohana" for them to save their funny little friend.

With new music, three original Elvis Presley songs, LILO & STITCH 2 is a whole new wave of fun and excitement for the entire family.

-----------------------------
General
Complete name : C:\Users\joker\Documents\WALT DISNEYS-LILO&STITCH 2[STITCH HAS A GLITCH]covers&subs[DVDRIP][ENG]-KIDZCORNER&J.T.R\LILO2.avi
Format : AVI
Format/Info : Audio Video Interleave
File size : 700 MiB
Duration : 1h 5mn
Overall bit rate : 1 498 Kbps
Writing application : FairUse Wizard - http://fairusewizard.com
Writing library : The best and REALLY easy backup tool

Video
Format : MPEG-4 Visual
Format profile : Streaming [email protected]
Format settings, BVOP : Yes
Format settings, QPel : No
Format settings, GMC : No warppoints
Format settings, Matrix : Default
Muxing mode : Packed bitstream
Codec ID : XVID
Codec ID/Hint : XviD
Duration : 1h 5mn
Bit rate : 1 360 Kbps
Width : 688 pixels
Height : 384 pixels
Display aspect ratio : 16/9
Frame rate : 25.000 fps
Resolution : 24 bits
Colorimetry : 4:2:0
Scan type : Progressive
Bits/(Pixel*Frame) : 0.206
Stream size : 636 MiB (91%)
Writing library : XviD 1.2.0.dev47 (UTC 2006-11-01)

Audio
Format : MPEG Audio
Format version : Version 1
Format profile : Layer 3
Codec ID : 55
Codec ID/Hint : MP3
Duration : 1h 5mn
Bit rate mode : Constant
Bit rate : 128 Kbps
Minimum bit rate : 128 Kbps
Channel(s) : 2 channels
Sampling rate : 48.0 KHz
Resolution : 16 bits
Stream size : 59.8 MiB (9%)
Alignment : Aligned on interleaves
Interleave, duration : 40 ms (1.00 video frame)
Interleave, preload duration : 504 ms
Writing library : LAME3.97
Encoding settings : CBR

related torrents

Torrent name

health leech seeds Size
 


comments (0)

Main Menu