Other

WALT DISNEYS LEROY&STITCH[DVDRIP][ENG] KIDZCORNER&J T R

  • Download 5x Faster
  • Download torrent
  • Direct Download
  • Rate this torrent +  |  -
WALT DISNEYS LEROY&STITCH[DVDRIP][ENG] KIDZCORNER&J T R

Free and Direct Download with Usenet.nl 300GB+ free


Torrent info

Name:WALT DISNEYS LEROY&STITCH[DVDRIP][ENG] KIDZCORNER&J T R

Total Size: 701.88 MB

Magnet: Magnet Link

Seeds: 0

Leechers: 0

Stream: Watch Online @ Movie4u

Last Updated: 2015-09-02 01:13:48 (Update Now)

Torrent added: 2009-09-01 06:56:13





Torrent Files List


767121_DV_L_B.JPG (Size: 701.88 MB) (Files: 8)

 767121_DV_L_B.JPG

32.34 KB

 767121_DV_L_F.JPG

27.84 KB

 [AllCDCovers]_leroy_and_stitch_2006_ws_r2_retail_dvd-cd.jpg

395.67 KB

 [AllCDCovers]_leroy_and_stitch_2006_ws_r2_retail_dvd-front.jpg

1.52 MB

 L&S.avi

699.84 MB

 Leroy.and.Stitch..srt

71.92 KB

 Torrent downloaded from Demonoid.com.txt

0.05 KB

 Tracked by moviesb4time.biz.txt

1.35 KB
 

tracker

leech seeds
 

Torrent description

Here comes trouble! The adventure never stops as Lilo and Stitch face the challenge of their lives in Disney's hilarious, all-new movie Leroy and Stitch.

As a reward for rounding up all 625 experiments, Lilo, Stitch, Jumba and Pleakley have been placed around the galaxy in a spot where each of them thinks they truly belong. Their lives are all shook up when the dastardly Dr. Hamsterviel breaks out of prison and forces Jumba to create a new experiment - Leroy, the evil twin of Stitch. To make matters worse, Hamsterviel soon clones the nasty little creature to form his own mischievous army.

Now it's up to Lilo to gather Stitch and the rest of the gang from the far corners of outer space to battle the legion of Leroys. When the going gets rough, our friends discover that one place they all truly belong it together.

General
Complete name : C:\Users\joker\Documents\WALT DISNEYS-LEROY&STITCH[DVDRIP][ENG]-KIDZCORNER&J.T.R\L&S.avi
Format : AVI
Format/Info : Audio Video Interleave
File size : 700 MiB
Duration : 1h 9mn
Overall bit rate : 1 402 Kbps
Writing application : FairUse Wizard - http://fairusewizard.com
Writing library : The best and REALLY easy backup tool

Video
Format : MPEG-4 Visual
Format profile : Streaming [email protected]
Format settings, BVOP : Yes
Format settings, QPel : No
Format settings, GMC : No warppoints
Format settings, Matrix : Default
Muxing mode : Packed bitstream
Codec ID : XVID
Codec ID/Hint : XviD
Duration : 1h 9mn
Bit rate : 1 265 Kbps
Width : 688 pixels
Height : 384 pixels
Display aspect ratio : 16/9
Frame rate : 25.000 fps
Resolution : 24 bits
Colorimetry : 4:2:0
Scan type : Progressive
Bits/(Pixel*Frame) : 0.191
Stream size : 631 MiB (90%)
Writing library : XviD 1.2.0.dev47 (UTC 2006-11-01)

Audio
Format : MPEG Audio
Format version : Version 1
Format profile : Layer 3
Codec ID : 55
Codec ID/Hint : MP3
Duration : 1h 9mn
Bit rate mode : Constant
Bit rate : 128 Kbps
Minimum bit rate : 128 Kbps
Channel(s) : 2 channels
Sampling rate : 48.0 KHz
Resolution : 16 bits
Stream size : 63.9 MiB (9%)
Alignment : Aligned on interleaves
Interleave, duration : 40 ms (1.00 video frame)
Interleave, preload duration : 504 ms
Writing library : LAME3.97
Encoding settings : CBR

related torrents

Torrent name

health leech seeds Size
 

comments (0)

Main Menu